Audio >> Lossless AudioFlag torrent
    
Name:Princess Resurrection OST Collection [APE] [4CD]Date:2011-01-24, 20:54 UTC
Submitter:puchuuSeeders:0
Tracker:http://open.nyaatorrents.info:6544/announceLeechers:2
Information:http://www.verycd.com/Downloads:439
Stardom:0 fans.File size:762 MiB
Download .txt
Download
Vuze (classic UI and Mainline DHT plugin) is the recommended client.
Playback help is here, and you probably need it.

Torrent description:

TV OST - Sympathy for the Belonephobia

Image

REM DISCID AD0E9C1F
REM COMMENT "ExactAudioCopy v0.95b3"
PERFORMER "ALI PROJECT"
TITLE "TV OST - Sympathy for the Belonephobia"
FILE "CDImage.ape" WAVE
TRACK 01 AUDIO
TITLE "逢魔ヶ恋(Bloody Baptisma) "
PERFORMER "ALI PROJECT"
INDEX 01 00:00:00
TRACK 02 AUDIO
TITLE "サスパンデュー乙女"
PERFORMER "ALI PROJECT"
INDEX 00 02:27:29
INDEX 01 02:30:13
TRACK 03 AUDIO
TITLE "地獄の吸血パレード"
PERFORMER "ALI PROJECT"
INDEX 00 03:02:12
INDEX 01 03:04:71
TRACK 04 AUDIO
TITLE "血塗れ野獣舞曲"
PERFORMER "ALI PROJECT"
INDEX 00 04:30:65
INDEX 01 04:33:49
TRACK 05 AUDIO
TITLE "サトゥルヌスの惨劇"
PERFORMER "ALI PROJECT"
INDEX 00 06:02:30
INDEX 01 06:05:14
TRACK 06 AUDIO
TITLE "舞踏蜘蛛ミッドナイト "
PERFORMER "ALI PROJECT"
INDEX 00 09:48:10
INDEX 01 09:50:69
TRACK 07 AUDIO
TITLE "インソムニアの夢ギロチン"
PERFORMER "ALI PROJECT"
INDEX 00 11:26:38
INDEX 01 11:29:22
TRACK 08 AUDIO
TITLE "王的血族(vocal)"
PERFORMER "ALI PROJECT"
INDEX 00 12:58:58
INDEX 01 13:02:42
TRACK 09 AUDIO
TITLE "撲殺ロック"
PERFORMER "ALI PROJECT"
INDEX 00 17:02:05
INDEX 01 17:05:64
TRACK 10 AUDIO
TITLE "逢魔ヶ恋(Hieronymusic Vibration)"
PERFORMER "ALI PROJECT"
INDEX 00 18:29:33
INDEX 01 18:32:17
TRACK 11 AUDIO
TITLE "ベロネフォビアに捧げるバラッド"
PERFORMER "ALI PROJECT"
INDEX 00 19:59:03
INDEX 01 20:01:62
TRACK 12 AUDIO
TITLE "三日月の怪物庭園"
PERFORMER "ALI PROJECT"
INDEX 00 22:29:36
INDEX 01 22:32:20
TRACK 13 AUDIO
TITLE "時計仕掛けの聖母像"
PERFORMER "ALI PROJECT"
INDEX 00 24:43:29
INDEX 01 24:46:13
TRACK 14 AUDIO
TITLE "破戒コンダクター"
PERFORMER "ALI PROJECT"
INDEX 00 26:28:31
INDEX 01 26:31:15
TRACK 15 AUDIO
TITLE "異形のさだめ"
PERFORMER "ALI PROJECT"
INDEX 00 28:24:27
INDEX 01 28:27:11
TRACK 16 AUDIO
TITLE "鬼畜踊る深き森"
PERFORMER "ALI PROJECT"
INDEX 00 29:55:40
INDEX 01 29:58:24
TRACK 17 AUDIO
TITLE "ベロネフォビアの晩餐会"
PERFORMER "ALI PROJECT"
INDEX 00 32:02:23
INDEX 01 32:05:07
TRACK 18 AUDIO
TITLE "蝋細工のラグタイム"
PERFORMER "ALI PROJECT"
INDEX 00 34:02:23
INDEX 01 34:05:07
TRACK 19 AUDIO
TITLE "跪いて足をお嘗め(Strings Arranged)"
PERFORMER "ALI PROJECT"
INDEX 00 35:22:00
INDEX 01 35:24:59
TRACK 20 AUDIO
TITLE "逢魔ヶ恋(vocal)"
PERFORMER "ALI PROJECT"
INDEX 00 37:57:02
INDEX 01 38:00:61
TRACK 21 AUDIO
TITLE "傷口に鋏を立てて"
PERFORMER "ALI PROJECT"
INDEX 00 42:21:13
INDEX 01 42:24:72
TRACK 22 AUDIO
TITLE "さらば愛しきチェーンソー "
PERFORMER "ALI PROJECT"
INDEX 00 44:34:63
INDEX 01 44:37:47
TRACK 23 AUDIO
TITLE "終わりなき葬送曲"
PERFORMER "ALI PROJECT"
INDEX 00 46:47:05
INDEX 01 46:49:64
TRACK 24 AUDIO
TITLE "天使論者のセレナード "
PERFORMER "ALI PROJECT"
INDEX 00 48:17:47
INDEX 01 48:20:31
TRACK 25 AUDIO
TITLE "蕩う光、或はその熱り"
PERFORMER "ALI PROJECT"
INDEX 00 50:37:06
INDEX 01 50:39:65
TRACK 26 AUDIO
TITLE "覚醒ベロネフォビア"
PERFORMER "ALI PROJECT"
INDEX 00 52:02:64
INDEX 01 52:05:47
TRACK 27 AUDIO
TITLE "666番目の原罪"
PERFORMER "ALI PROJECT"
INDEX 00 54:01:66
INDEX 01 54:04:50
TRACK 28 AUDIO
TITLE "宿命に抗いしもの"
PERFORMER "ALI PROJECT"
INDEX 00 55:48:08
INDEX 01 55:50:67
TRACK 29 AUDIO
TITLE "全滅墓場より愛をこめて"
PERFORMER "ALI PROJECT"
INDEX 00 57:27:18
INDEX 01 57:30:02
TRACK 30 AUDIO
TITLE "BLOOD QUEEN(TV size)"
PERFORMER "ALI PROJECT"
INDEX 00 59:10:30
INDEX 01 59:15:14
TRACK 31 AUDIO
TITLE "跪いて足をお嘗め(TV size)"
PERFORMER "ALI PROJECT"
INDEX 00 60:45:73
INDEX 01 60:49:57

OP Single - Blood Queen

Image

PERFORMER "美郷あき"
TITLE "OP Single - Blood Queen"
FILE "CDImage.ape" WAVE
TRACK 01 AUDIO
TITLE "BLOOD QUEEN"
PERFORMER "美郷あき"
INDEX 01 00:00:00
TRACK 02 AUDIO
TITLE "忘却バタフライ"
PERFORMER "美郷あき"
INDEX 00 03:41:65
INDEX 01 03:44:40
TRACK 03 AUDIO
TITLE "BLOOD QUEEN(off vocal) "
PERFORMER "美郷あき"
INDEX 00 07:54:68
INDEX 01 07:58:05
TRACK 04 AUDIO
TITLE "忘却バタフライ(off vocal) "
PERFORMER "美郷あき"
INDEX 00 11:39:71
INDEX 01 11:42:46

ED Single - Hizamadui Te Ashi Woo Name

Image

CATALOG 4562183181069
PERFORMER "ALI PROJECT"
TITLE "ED Single - Hizamadui Te Ashi Woo Name"
FILE "CDImage.ape" WAVE
TRACK 01 AUDIO
TITLE "跪いて足をお嘗め"
PERFORMER "ALI PROJECT"
ISRC JPA450700186
INDEX 01 00:00:00
TRACK 02 AUDIO
TITLE "最愛なる魔王さま"
PERFORMER "ALI PROJECT"
ISRC JPA450700187
INDEX 00 04:13:29
INDEX 01 04:18:01
TRACK 03 AUDIO
TITLE "跪いて足をお嘗め <instrumental>"
PERFORMER "ALI PROJECT"
ISRC JPA450700188
INDEX 00 08:41:39
INDEX 01 08:47:11
TRACK 04 AUDIO
TITLE "最愛なる魔王さま <instrumental>"
PERFORMER "ALI PROJECT"
ISRC JPA450700189
INDEX 00 12:59:61
INDEX 01 13:04:33

Character Song - Genzai No Aperitif

Image

REM DISCID 2B043E04
REM COMMENT "ExactAudioCopy v0.95b2"
CATALOG 4562183181137
PERFORMER "姫(川澄綾子)"
TITLE "Character Song - Genzai No Aperitif"
FILE "CDImage.ape" WAVE
TRACK 01 AUDIO
TITLE "原罪のAperitif"
PERFORMER "姫(川澄綾子)"
ISRC JPI100701306
INDEX 01 00:00:00
TRACK 02 AUDIO
TITLE "BLOOD QUEEN (Apocalyptic Aphrodite Mix)"
PERFORMER "姫(川澄綾子)"
ISRC JPI100701307
INDEX 00 04:58:47
INDEX 01 05:01:60
TRACK 03 AUDIO
TITLE "原罪のAperitif <instrumental>"
PERFORMER "姫(川澄綾子)"
ISRC JPI100701308
INDEX 00 09:01:42
INDEX 01 09:04:55
TRACK 04 AUDIO
TITLE "BLOOD QUEEN (Apocalyptic Aphrodite Mix) <instrumental>"
PERFORMER "姫(川澄綾子)"
ISRC JPI100701309
INDEX 00 14:03:27
INDEX 01 14:06:39

Files in torrent:

Show files

User comments:

No user comments have been posted.

Post a comment:

You need to be logged in to post a comment.
You need to be logged in with a trusted account to use the chatbox.
[Sticky] <Nyaa> We will of course be playing Star Citizen. If you have a game package with alpha access, you can join our piracy and smuggling efforts right here. See you in the 'verse!
[04-23, 06:35 UTC] <aers> You first RHE
[04-23, 05:17 UTC] <ReinForce> @DJATOM > one one one one///
[04-23, 05:16 UTC] <DJATOM> 'sup, guys \o
[04-23, 04:31 UTC] <RHExcelion> go away noko
[04-23, 02:20 UTC] <Noko> Hello internets