Live Action >> Raw Live ActionFlag torrent
    
Name:Maria-sama ga miteru — Live-action film (実写映画「マリア様がみてる」)Date:2011-10-08, 08:45 UTC
Submitter:AnonymousSeeders:2
Tracker:http://open.nyaatorrents.info:6544/announceLeechers:0
Information:Downloads:5531
Stardom:0 fans.File size:1.07 GiB
Download .txt
Download
Vuze with the Mainline DHT plugin is the recommended client.
Playback help is here, and you probably need it.

Torrent description:

Source: DVD

General
Complete name : Maria-sama ga miteru - Live-action film.mp4
Format : MPEG-4
Format profile : Base Media
Codec ID : isom
File size : 1.07 GiB
Duration : 1h 32mn
Overall bit rate : 1 659 Kbps
Encoded date : UTC 2011-10-07 08:24:16
Tagged date : UTC 2011-10-07 08:24:16

Video
ID : 1
Format : AVC
Format/Info : Advanced Video Codec
Format profile : High@L4.1
Format settings, CABAC : Yes
Format settings, ReFrames : 16 frames
Codec ID : avc1
Codec ID/Info : Advanced Video Coding
Duration : 1h 32mn
Bit rate mode : Variable
Bit rate : 1 464 Kbps
Maximum bit rate : 13.5 Mbps
Width : 704 pixels
Height : 480 pixels
Display aspect ratio : 16:9
Frame rate mode : Constant
Frame rate : 23.976 fps
Standard : NTSC
Color space : YUV
Chroma subsampling : 4:2:0
Bit depth : 8 bits
Scan type : Progressive
Bits/(Pixel*Frame) : 0.181
Stream size : 972 MiB (88%)
Writing library : x264 core 118 r2085 8a62835
Encoding settings : cabac=1 / ref=16 / deblock=1:0:0 / analyse=0x3:0x133 / me=umh / subme=11 / psy=1 / psy_rd=1.00:0.20 / mixed_ref=1 / me_range=32 / chroma_me=1 / trellis=2 / 8x8dct=1 / cqm=0 / deadzone=21,11 / fast_pskip=1 / chroma_qp_offset=-3 / threads=6 / sliced_threads=0 / nr=0 / decimate=0 / interlaced=0 / bluray_compat=0 / constrained_intra=0 / bframes=10 / b_pyramid=2 / b_adapt=2 / b_bias=0 / direct=3 / weightb=1 / open_gop=0 / weightp=2 / keyint=250 / keyint_min=23 / scenecut=40 / intra_refresh=0 / rc_lookahead=60 / rc=crf / mbtree=1 / crf=15.0 / qcomp=0.67 / qpmin=0 / qpmax=69 / qpstep=4 / ip_ratio=1.40 / aq=1:1.20
Encoded date : UTC 2011-10-08 02:34:53
Tagged date : UTC 2011-10-07 08:25:19
Matrix coefficients : BT.470-6 System B, BT.470-6 System G, BT.601-6 625, BT.1358 625, BT.1700 625 PAL, BT.1700 625 SECAM, IEC 61966-2-4 601

Audio
ID : 2
Format : AC-3
Format/Info : Audio Coding 3
Mode extension : CM (complete main)
Codec ID : ac-3
Duration : 1h 32mn
Bit rate mode : Constant
Bit rate : 192 Kbps
Channel(s) : 2 channels
Channel positions : Front: L R
Sampling rate : 48.0 KHz
Bit depth : 16 bits
Compression mode : Lossy
Stream size : 127 MiB (12%)
Language : Japanese
Encoded date : UTC 2011-10-07 08:25:06
Tagged date : UTC 2011-10-07 08:25:19


Fail: here

Files in torrent:

Show files

User comments:

Show comments