Anime >> Non-English-translated AnimeFlag torrent
    
Name:[JPU] Gantz Live Action [BDRip 1080p] [0BA495C6] [Spanish subs]Date:2012-01-24, 20:14 UTC
Submitter:CyberPunker00Seeders:0
Tracker:http://open.nyaatorrents.info:6544/announceLeechers:5
Information:http://www.japanuniverse.org/Downloads:511
Stardom:0 fans.File size:2.12 GiB
Download .txt
Download
Vuze (classic UI and Mainline DHT plugin) is the recommended client.
Playback help is here, and you probably need it.

Torrent description:

[JPU] Gantz Live Action [BDRip 1080p] [0BA495C6] por http://www.japanuniverse.org/
Información Técnica:

Format : MPEG-4
Format profile : Base Media
Codec ID : isom
File size : 2.12 GiB
Duration : 2h 10mn
Overall bit rate mode : Variable
Overall bit rate : 2 319 Kbps
Encoded date : UTC 2011-07-26 20:29:35
Tagged date : UTC 2011-07-26 20:29:35

Video
ID : 1
Format : AVC
Format/Info : Advanced Video Codec
Format profile : High@L4.1
Format settings, CABAC : Yes
Format settings, ReFrames : 3 frames
Codec ID : avc1
Codec ID/Info : Advanced Video Coding
Duration : 2h 10mn
Bit rate : 2 189 Kbps
Maximum bit rate : 14.4 Mbps
Width : 1 920 pixels
Height : 1 036 pixels
Display aspect ratio : 1.853
Frame rate mode : Constant
Frame rate : 23.976 fps
Color space : YUV
Chroma subsampling : 4:2:0
Bit depth : 8 bits
Scan type : Progressive
Bits/(Pixel*Frame) : 0.046
Stream size : 2.00 GiB (94%)
Writing library : x264 core 115 r1995 c1e60b9
Encoding settings : cabac=1 / ref=3 / deblock=1:1:1 / analyse=0x3:0x113 / me=umh / subme=5 / psy=1 / psy_rd=1.00:0.00 / mixed_ref=1 / me_range=16 / chroma_me=1 / trellis=0 / 8x8dct=1 / cqm=0 / deadzone=21,11 / fast_pskip=1 / chroma_qp_offset=0 / threads=12 / sliced_threads=0 / nr=0 / decimate=1 / interlaced=0 / bluray_compat=0 / constrained_intra=0 / bframes=2 / b_pyramid=0 / b_adapt=1 / b_bias=0 / direct=3 / weightb=1 / open_gop=0 / weightp=2 / keyint=250 / keyint_min=23 / scenecut=40 / intra_refresh=0 / rc_lookahead=50 / rc=2pass / mbtree=1 / bitrate=2189 / ratetol=1.0 / qcomp=0.60 / qpmin=10 / qpmax=51 / qpstep=4 / cplxblur=20.0 / qblur=0.5 / vbv_maxrate=50000 / vbv_bufsize=50000 / nal_hrd=none / ip_ratio=1.40 / aq=1:1.00
Encoded date : UTC 2011-07-26 20:29:35
Tagged date : UTC 2011-07-26 20:30:52
Material_Duration : 108862
Material_StreamSize : 2144806051
Material_FrameCount : 187967

Audio
ID : 2
Format : AAC
Format/Info : Advanced Audio Codec
Format profile : HE-AAC / LC
Codec ID : 40
Duration : 2h 10mn
Bit rate mode : Variable
Bit rate : 128 Kbps
Maximum bit rate : 149 Kbps
Channel(s) : 6 channels
Channel positions : Front: L C R, Side: L R, LFE
Sampling rate : 48.0 KHz / 24.0 KHz
Compression mode : Lossy
Stream size : 119 MiB (6%)
Encoded date : UTC 2011-07-26 20:30:44
Tagged date : UTC 2011-07-26 20:30:52


Files in torrent:

Show files

User comments:

No user comments have been posted.

Post a comment:

You need to be logged in to post a comment.
You need to be logged in with a trusted account to use the chatbox.
[Sticky] <Nyaa> We will of course be playing Star Citizen. If you have a game package with alpha access, you can join our piracy and smuggling efforts right here. See you in the 'verse!
[04-23, 17:44 UTC] <ReinForce> Just do it!
[04-23, 16:29 UTC] <Commie> How do I download anime?
[04-23, 15:03 UTC] <neto_rare> pls ban lae and skdicks
[04-23, 13:00 UTC] <Cheesecake Militia> are plebs not allowed to touch things again?
[04-23, 12:40 UTC] <CiQ> hell'o
[04-23, 12:13 UTC] <Seizhan> hello just hello
[04-23, 10:39 UTC] <lae> ohayo iegg-tang!!
[04-23, 10:27 UTC] <IEgg> ohayo minasang!
[04-23, 09:51 UTC] <neto_rare> pls ban koleans
[04-23, 09:50 UTC] <ReinForce> 'hello chatbox' >> hello world
[04-23, 09:25 UTC] <bakatotestto> \(hello)/
[04-23, 07:28 UTC] <neto_rare> hello chatbox
[04-23, 07:00 UTC] <aers> Hello
[04-23, 06:58 UTC] <lae> someone get me a funnel
[04-23, 06:53 UTC] <Ichigo69> Hi aers!
[04-23, 06:35 UTC] <aers> You first RHE
[04-23, 05:17 UTC] <ReinForce> @DJATOM > one one one one///
[04-23, 05:16 UTC] <DJATOM> 'sup, guys \o
[04-23, 04:31 UTC] <RHExcelion> go away noko
[04-23, 02:20 UTC] <Noko> Hello internets