Anime >> Raw AnimeFlag torrent
    
Name:[Kurai-subs-raw] Ikkitousen Shuugaku Toushi Keppuu-roku OVA 1 (BD 1280x720 x264 AC3).mkvDate:2012-03-18, 18:21 UTC
Submitter:toxick69Seeders:0
Tracker:http://open.nyaatorrents.info:6544/announceLeechers:1
Information:http://kurai-subs.blogspot.com/Downloads:981
Stardom:0 fans.File size:868 MiB
Download .txt
Download
Vuze (classic UI and Mainline DHT plugin) is the recommended client.
Playback help is here, and you probably need it.

Torrent description:

General
Unique ID : 199291587998632689254243683495376582398 (0x95EE29E82F3E9B49AB3236A9FD63F6FE)
Complete name : [Kurai-subs-raw] Ikkitousen Shuugaku Toushi Keppuu-roku OVA 1 (BD 1280x720 x264 AC3).mkv
Format : Matroska
Format version : Version 2
File size : 868 MiB
Duration : 43mn 29s
Overall bit rate : 2 789 Kbps
Encoded date : UTC 2012-03-18 18:12:39
Writing application : mkvmerge v5.2.1 ('A Far Off Place') built on Jan 2 2012 23:21:10
Writing library : libebml v1.2.3 + libmatroska v1.3.0

Video
ID : 1
Format : AVC
Format/Info : Advanced Video Codec
Format profile : High@L4.1
Format settings, CABAC : Yes
Format settings, ReFrames : 4 frames
Muxing mode : Header stripping
Codec ID : V_MPEG4/ISO/AVC
Duration : 43mn 29s
Bit rate : 2 149 Kbps
Width : 1 280 pixels
Height : 720 pixels
Display aspect ratio : 16:9
Frame rate : 23.976 fps
Color space : YUV
Chroma subsampling : 4:2:0
Bit depth : 8 bits
Scan type : Progressive
Bits/(Pixel*Frame) : 0.097
Stream size : 651 MiB (75%)
Title : Japanese
Writing library : x264 core 122 r2184 5c85e0a
Encoding settings : cabac=1 / ref=4 / deblock=1:1:1 / analyse=0x3:0x113 / me=umh / subme=6 / psy=1 / psy_rd=0.60:0.00 / mixed_ref=1 / me_range=16 / chroma_me=1 / trellis=1 / 8x8dct=1 / cqm=0 / deadzone=21,11 / fast_pskip=1 / chroma_qp_offset=-2 / threads=6 / sliced_threads=0 / nr=0 / decimate=1 / interlaced=0 / bluray_compat=0 / constrained_intra=0 / bframes=3 / b_pyramid=2 / b_adapt=2 / b_bias=0 / direct=3 / weightb=0 / open_gop=0 / weightp=2 / keyint=240 / keyint_min=23 / scenecut=40 / intra_refresh=0 / rc_lookahead=40 / rc=2pass / mbtree=1 / bitrate=2149 / ratetol=1.0 / qcomp=0.60 / qpmin=10 / qpmax=51 / qpstep=4 / cplxblur=20.0 / qblur=0.5 / vbv_maxrate=50000 / vbv_bufsize=50000 / nal_hrd=none / ip_ratio=1.40 / aq=1:0.00
Language : Japanese
Default : Yes
Forced : No

Audio
ID : 2
Format : AC-3
Format/Info : Audio Coding 3
Mode extension : CM (complete main)
Muxing mode : Header stripping
Codec ID : A_AC3
Duration : 43mn 29s
Bit rate mode : Constant
Bit rate : 640 Kbps
Channel(s) : 6 channels
Channel positions : Front: L C R, Side: L R, LFE
Sampling rate : 48.0 KHz
Bit depth : 16 bits
Compression mode : Lossy
Stream size : 199 MiB (23%)
Title : Japanese
Language : Japanese
Default : Yes
Forced : No

Files in torrent:

Show files

User comments:

No user comments have been posted.

Post a comment:

You need to be logged in to post a comment.
You need to be logged in with a trusted account to use the chatbox.
[Sticky] <Nyaa> We will of course be playing Star Citizen. If you have a game package with alpha access, you can join our piracy and smuggling efforts right here. See you in the 'verse!
[04-23, 06:35 UTC] <aers> You first RHE
[04-23, 05:17 UTC] <ReinForce> @DJATOM > one one one one///
[04-23, 05:16 UTC] <DJATOM> 'sup, guys \o
[04-23, 04:31 UTC] <RHExcelion> go away noko
[04-23, 02:20 UTC] <Noko> Hello internets