Anime >> Non-English-translated AnimeFlag torrent
    
Name:[Animelegance] Naruto Shippuuden Movie 5: Blood Prison TurkishSub 480p x264Date:2012-05-01, 06:48 UTC
Submitter:AnimeleganceSeeders:1
Tracker:http://open.nyaatorrents.info:6544/announceLeechers:0
Information:http://www.animelegance.com/naruto-ova-amp-movie/3761-naruto-shippuuden-...Downloads:947
Stardom:0 fans.File size:1.08 GiB
Download .txt
Download
Vuze with the Mainline DHT plugin is the recommended client.
Playback help is here, and you probably need it.

Torrent description:

[align=center][size=xx-large]Naruto Shippuuden Blood Prison Türkçe Altyazılı[/size]

Image

[size=small]Naruto, Kumogakure'nin Raikage'si olan A'ya suikast girişiminde bulunmakla mükellef tutulur. Üstüne üstlük, ölen Iwagakure ve Kirigakure joninlerinden de sorumludur bizim ki. Naruto daha sonra Hōzukijō adıyla da bilinen Demon Lamp Kulesi'ne (Şeytan Feneri, Şeytan Lambası) hapsedilir.

Suçlular ile çevrelenmiş bu tesis, Mui isimli bir kişinin sorumluluğundadır. Bu lider, Üst Düzey Hapis Tekniği ile, mahkumları güçlerinden alıkoyabilmektedir.

Naruto, bu kumpastan kendini kurtarmak ve Raikage'ye saldıranın kimliğini deşifre etmek zorundadır. Peki ama kim? Naruto bu yolda yalnız değildir...
[/size]

Image

Image

Image

[php]General
Complete name : C:\Documents and Settings\Administrator\Belgelerim\Downloads\Video\Naruto Shippuuden Movie 5 - Blood Prison.mp4
Format : MPEG-4
Format profile : Base Media
Codec ID : isom
File size : 1.08 GiB
Duration : 1h 56mn
Overall bit rate mode : Variable
Overall bit rate : 1 331 Kbps
Encoded date : UTC 2012-04-30 12:12:01
Tagged date : UTC 2012-04-30 12:12:01

Video
ID : 1
Encoder : AtomCmyLMz
Format : AVC
Format/Info : Advanced Video Codec
Format profile : High@L4.1
Format settings, CABAC : Yes
Format settings, ReFrames : 3 frames
Codec ID : avc1
Codec ID/Info : Advanced Video Coding
Duration : 1h 56mn
Bit rate : 1 199 Kbps
Maximum bit rate : 7 212 Kbps
Width : 720 pixels
Height : 480 pixels
Display aspect ratio : 3:2
Frame rate mode : Constant
Frame rate : 23.976 fps
Standard : NTSC
Color space : YUV
Chroma subsampling : 4:2:0
Bit depth : 8 bits
Scan type : Progressive
Bits/(Pixel*Frame) : 0.145
Stream size : 996 MiB (90%)
Writing library : x264 core 120 r2164 da19765
Encoding settings : cabac=1 / ref=4 / deblock=1:4:4 / analyse=0x3:0x113 / me=hex / subme=4 / psy=1 / psy_rd=0.40:0.00 / mixed_ref=0 / me_range=16 / chroma_me=1 / trellis=1 / 8x8dct=1 / cqm=0 / deadzone=21,11 / fast_pskip=1 / chroma_qp_offset=0 / threads=12 / sliced_threads=0 / nr=0 / decimate=1 / interlaced=0 / bluray_compat=0 / constrained_intra=0 / bframes=5 / b_pyramid=1 / b_adapt=1 / b_bias=0 / direct=1 / weightb=1 / open_gop=0 / weightp=1 / keyint=240 / keyint_min=23 / scenecut=40 / intra_refresh=0 / rc_lookahead=20 / rc=2pass / mbtree=1 / bitrate=1199 / ratetol=1.0 / qcomp=0.60 / qpmin=10 / qpmax=51 / qpstep=4 / cplxblur=20.0 / qblur=0.5 / vbv_maxrate=50000 / vbv_bufsize=50000 / nal_hrd=none / ip_ratio=1.40 / aq=1:1.00
Encoded date : UTC 2012-04-30 12:12:01
Tagged date : UTC 2012-04-30 12:12:16

Audio
ID : 2
Format : AAC
Format/Info : Advanced Audio Codec
Format profile : LC
Codec ID : 40
Duration : 1h 56mn
Bit rate mode : Variable
Bit rate : 128 Kbps
Maximum bit rate : 171 Kbps
Channel(s) : 2 channels
Channel positions : Front: L R
Sampling rate : 48.0 KHz
Compression mode : Lossy
Stream size : 106 MiB (10%)
Encoded date : UTC 2012-04-30 12:12:13
Tagged date : UTC 2012-04-30 12:12:16
[/php][/align]

Files in torrent:

Show files

User comments:

Show comments