Anime >> RawFlag torrent
    
Name:[TV-J] Suzumiya Haruhi no Yuuutsu 01-28 [BD 1920x1080 h264+AAC(JP+EN) +Sub(EN) Chap]Date:2010-12-04, 04:32 UTC
Submitter:sukebeSeeders:11
Tracker:http://open.nyaatorrents.info:6544/announceLeechers:4
Information:Downloads:67319
Stardom:0 fans.File size:20.03 GiB
Download .txt
Download
Vuze with the Mainline DHT plugin is the recommended client.
Playback help is right here. :3

Torrent description:

涼宮ハルヒの憂鬱 第01-28話 BD-Rip

1920x1080 h264 AAC-256kbps (Dual Audio JP+EN) VobSub(EN) Chaptered

#TV-Japan@IRC.Rizon.Net


EP1 MEDIAINFO
General
Complete name : [TV-J] Suzumiya Haruhi no Yuuutsu - 01 [BD 1920x1080 h264+AAC(JP+EN) +Sub(EN) 24m43s].mp4
Format : MPEG-4
Format profile : Base Media
Codec ID : isom
File size : 852 MiB
Duration : 24mn 43s
Overall bit rate : 4 820 Kbps
Movie name : 涼宮ハルヒの憂鬱 第01話 「涼宮ハルヒの憂鬱 I」
Encoded date : UTC 2010-11-28 12:27:15
Tagged date : UTC 2010-11-29 12:27:18

Video
ID : 1
Format : AVC
Format/Info : Advanced Video Codec
Format profile : High@L4.1
Format settings, CABAC : Yes
Format settings, ReFrames : 4 frames
Codec ID : avc1
Codec ID/Info : Advanced Video Coding
Duration : 24mn 43s
Bit rate mode : Variable
Bit rate : 4 285 Kbps
Maximum bit rate : 33.6 Mbps
Width : 1 920 pixels
Height : 1 080 pixels
Display aspect ratio : 16:9
Frame rate mode : Constant
Frame rate : 23.976 fps
Color space : YUV
Chroma subsampling : 4:2:0
Bit depth : 8 bits
Scan type : Progressive
Bits/(Pixel*Frame) : 0.086
Stream size : 758 MiB (89%)
Writing library : x264 core 106 r1732+9_DANGEROUS ac97594
Encoding settings : cabac=1 / ref=4 / deblock=1:-1:-1 / analyse=0x3:0x113 / me=umh / subme=9 / psy=1 / fade_compensate=0.00 / psy_rd=0.75:0.25 / mixed_ref=1 / me_range=16 / chroma_me=1 / trellis=2 / 8x8dct=1 / cqm=1 / deadzone=21,11 / fast_pskip=0 / chroma_qp_offset=-4 / threads=12 / sliced_threads=0 / nr=0 / decimate=0 / interlaced=0 / constrained_intra=0 / fgo=0 / bframes=6 / b_pyramid=0 / b_adapt=1 / b_bias=0 / direct=3 / weightb=1 / open_gop=0 / weightp=2 / keyint=240 / keyint_min=1 / scenecut=60 / intra_refresh=0 / rc_lookahead=40 / rc=crf / mbtree=0 / crf=20.0 / qcomp=0.60 / qpmin=8 / qpmax=42 / qpstep=8 / vbv_maxrate=40000 / vbv_bufsize=30000 / crf_max=0.0 / ip_ratio=1.40 / pb_ratio=1.30 / aq=2 / aq-strength=0.25 / aq-sensitivity=12.00 / aq-ifactor=1.00 / aq-pfactor=1.00 / aq-bfactor=1.00 / aq2=1 / aq2-strength=0.25 / aq2-sensitivity=15.00 / nal_hrd=none
Encoded date : UTC 2010-11-28 20:06:29
Tagged date : UTC 2010-11-28 12:27:16

Audio #1
ID : 2
Format : AAC
Format/Info : Advanced Audio Codec
Format version : Version 4
Format profile : LC
Format settings, SBR : No
Codec ID : 40
Duration : 24mn 43s
Bit rate mode : Variable
Bit rate : 256 Kbps
Maximum bit rate : 258 Kbps
Channel(s) : 2 channels
Channel positions : Front: L R
Sampling rate : 48.0 KHz
Stream size : 45.3 MiB (5%)
Title : japanese
Language : Japanese
Encoded date : UTC 2010-11-28 12:27:16
Tagged date : UTC 2010-11-28 12:27:16

Audio #2
ID : 3
Format : AAC
Format/Info : Advanced Audio Codec
Format version : Version 4
Format profile : LC
Format settings, SBR : No
Codec ID : 40
Duration : 24mn 43s
Bit rate mode : Variable
Bit rate : 256 Kbps
Maximum bit rate : 258 Kbps
Channel(s) : 2 channels
Channel positions : Front: L R
Sampling rate : 48.0 KHz
Stream size : 45.3 MiB (5%)
Title : english
Language : English
Encoded date : UTC 2010-11-28 12:27:16
Tagged date : UTC 2010-11-28 12:27:16

Text
ID : 4
Format : VobSub
Codec ID : subp
Codec ID/Info : The same subtitle format used on DVDs
Duration : 24mn 38s
Bit rate mode : Variable
Bit rate : 13.4 Kbps
Stream size : 2.36 MiB (0%)
Language : English
Encoded date : UTC 2010-11-28 12:27:16
Tagged date : UTC 2010-11-28 12:27:16

Menu
00:00:00.000 : アバン
00:02:31.025 : OP
00:04:01.032 : Aパート
00:10:48.105 : Bパート
00:23:38.083 : ED

Files in torrent:

Show files

User comments:

ichi
User
2010-12-04 at 20:41 UTC
Is this worth downloading, or should I wait for a release from a 'proper' sub group?
skelletonman
User
2010-12-05 at 19:14 UTC
the sub is okay, but the audio is encoded in 256kb vbr
KanaChan
User
2014-07-29 at 18:24 UTC
but what's the order?

Post a comment:

You need to be logged in to post a comment.