Live Action >> Live Action Promotional VideoFlag torrent
    
Name:Saito Kazuyoshi - Always [1440x1080 h264 SSTV HD].tsDate:2013-08-28, 04:58 UTC
Submitter:0x99Seeders:1
Tracker:http://open.nyaatorrents.info:6544/announceLeechers:0
Information:http://gDownloads:855
Stardom:0 fans.File size:364.7 MiB
Download .txt
Download
Vuze with the Mainline DHT plugin is the recommended client.
Playback help is here, and you probably need it.

Torrent description:


ID : 12292 (0x3004)
Complete name : Saito Kazuyoshi - Always [1440x1080 h264 SSTV HD].ts
Format : MPEG-TS
File size : 365 MiB
Duration : 4mn 47s
Overall bit rate mode : Variable
Overall bit rate : 10.6 Mbps

Video
ID : 4098 (0x1002)
Menu ID : 33410 (0x8282)
Format : AVC
Format/Info : Advanced Video Codec
Format profile : Main@L4.0
Format settings, CABAC : Yes
Format settings, ReFrames : 4 frames
Codec ID : 27
Duration : 4mn 47s
Bit rate mode : Variable
Bit rate : 9 955 Kbps
Maximum bit rate : 15.0 Mbps
Width : 1 440 pixels
Height : 1 080 pixels
Display aspect ratio : 16:9
Frame rate : 29.970 fps
Standard : Component
Color space : YUV
Chroma subsampling : 4:2:0
Bit depth : 8 bits
Scan type : MBAFF
Bits/(Pixel*Frame) : 0.214
Stream size : 342 MiB (94%)
Color primaries : BT.709
Transfer characteristics : BT.709
Matrix coefficients : BT.709

Audio
ID : 4162 (0x1042)
Menu ID : 33410 (0x8282)
Format : AAC
Format/Info : Advanced Audio Codec
Format version : Version 2
Format profile : LC
Muxing mode : ADTS
Codec ID : 15
Duration : 4mn 47s
Bit rate mode : Variable
Bit rate : 144 Kbps
Channel count : 2 channels
Channel positions : Front: L R
Sampling rate : 48.0 KHz
Compression mode : Lossy
Delay relative to video : -59ms
Stream size : 4.94 MiB (1%)

Image

Files in torrent:

Show files

User comments:

No user comments have been posted.

Post a comment:

You need to be logged in to post a comment.
You need to be logged in to use the chatbox.
[Omnicat] <Nyaa> We will of course be playing Star Citizen. If you have a game package, you can join our subversion efforts right here. See you in the 'verse!
[10-21, 23:53] <sarachikorita> uploading a straight ISO is prolly AOK
[10-21, 23:32] <crf> ikr
[10-21, 23:31] <vivan> wow, that was fast
[10-21, 23:25] <crf> note that these re-encodes are also shit
[10-21, 23:22] <crf> speaking of x265 re-encodes, here are some that aren't marked as re-encodes: http://www.nyaa.se/?page=search&cats=1_37&filter=1&term=%281280x720+HEVC+AAC%29
[10-21, 23:08] <S3qu3l> I can't upload DVDRip ISO's of animes ?
[10-21, 22:29] <Artemix> also a little bizarre.
[10-21, 22:29] <Artemix> lol Gintama is awesome,
[10-21, 22:11] <shaddrag> Lol, another troll sub of that damn movie? Can't deal xD
[10-21, 21:55] <Diumlol> i need ebin memes in my subs
[10-21, 21:50] <herkz> yeah there are no hevc fansub releases because fansubbers aren't idiots and realize x264 is still way better than x265
[10-21, 21:49] <vivan> pkisme, do you mean those shitty reencodes?
[10-21, 21:21] <Vortrex> (scroll down for what I mean) But I was serious, that really was my car: http://i.imgur.com/s28XN2U.jpg
[10-21, 21:19] <pkisme> just curious - how everyone finds the HEVC encoded fansubs?
[10-21, 20:56] <Denkoko> Thanks for the rec.
[10-21, 20:50] <Faggosaurus> xD
[10-21, 20:41] <[TRVE]> Just browse knowyourmeme then.
[10-21, 20:31] <Denkoko> I cannot enjoy HS's releases as they do not provide enough memes to satisfy me.
[10-21, 20:05] <lolilol> such trolling
[10-21, 20:05] <lolilol> "Proudly translated and presented by the HorribleSubs Fansubbing Team."
[10-21, 19:59] <HerbalNekoTea> My bad, i am the root of all the problem here... >_>
[10-21, 19:54] <paulo27ms> that censorship, wow herkz wow
[10-21, 19:53] <paulo27ms> #612919
[10-21, 19:52] <desudesusu> ლ(╹◡╹ლ) sao plz
[10-21, 19:46] <Artemix> how can anyone watch detective conan.. what a piece of shit.
[10-21, 19:29] <MisterDonut> Greatness4Eva never
[10-21, 18:54] <YaKiriito> Soon (≧ω≦)人(≧ω≦)人(≧ω≦)人(≧ω≦)
[10-21, 18:28] <mouchan> 卐 ( ಠ_ಠ) 卐
[10-21, 18:23] <desudesusu> Soon ლ(╹◡╹ლ)
[10-21, 18:20] <Greatness4Eva> When will the movie be up?
[10-21, 17:55] <YaKiriito> (∩º-º)⊃━☆゚. * ・ 。゚✧・゚: *✧・゚:* \(◕‿◕✿)/ *:・゚✧*:・゚✧
[10-21, 17:54] <YaKiriito> (∩º-º)⊃━☆゚. * ・ 。゚✧・゚: *✧・゚:* \(◕‿◕✿)/ *:・゚✧*:・゚✧
[10-21, 17:52] <YaKiriito> (∩º-º)⊃━☆゚. * ・ 。゚
[10-21, 17:13] <Artemix> My message dissappeared!!1
[10-21, 16:50] <Tysonblast> remember to check your shoes for taks
[10-21, 15:54] <NeVe12p4wNeD> >dork
[10-21, 15:26] <[TRVE]> That was quite funny.
[10-21, 15:26] <[TRVE]> I'm not a fan, but I liked how the little whore in the beginning suddenly stopped whoring herself out because hey, that dork from 2 years ago got a car now.
[10-21, 15:20] <Vortrex> Anyone Initial D fan?
[10-21, 15:19] <OneCrazyRussian> it's broken
[10-21, 15:19] <Vortrex> This is my car ;)
[10-21, 15:19] <Vortrex> --/_/___/__________\___\_\--
[10-21, 15:19] <Vortrex> |__▀▀▀___________▀▀▀__|
[10-21, 15:19] <Vortrex> --|-------\___AW11___/------|--
[10-21, 15:19] <Vortrex> -▀▀▀▀▀▀▀▀▀▀▀▀▀▀▀▀▀-
[10-21, 15:18] <ronelm2000> lol
[10-21, 15:16] <Vortrex> --/_/___/__________\___\_\--
[10-21, 15:08] <desudesusu> ლ(╹◡╹ლ)
[10-21, 15:02] <hazardous> it was me.
[10-21, 14:59] <[TRVE]> About time.
[10-21, 14:55] <cyatek> /人 ◕‿‿◕ 人\