Live Action >> Live Action Promotional VideoFlag torrent
    
Name:Saito Kazuyoshi - Always [1440x1080 h264 SSTV HD].tsDate:2013-08-28, 04:58 UTC
Submitter:0x99Seeders:0
Tracker:http://open.nyaatorrents.info:6544/announceLeechers:0
Information:http://gDownloads:814
Stardom:0 fans.File size:364.7 MiB
Download .txt
Download
Vuze (classic UI and Mainline DHT plugin) is the recommended client.
Playback help is here, and you probably need it.

Torrent description:


ID : 12292 (0x3004)
Complete name : Saito Kazuyoshi - Always [1440x1080 h264 SSTV HD].ts
Format : MPEG-TS
File size : 365 MiB
Duration : 4mn 47s
Overall bit rate mode : Variable
Overall bit rate : 10.6 Mbps

Video
ID : 4098 (0x1002)
Menu ID : 33410 (0x8282)
Format : AVC
Format/Info : Advanced Video Codec
Format profile : Main@L4.0
Format settings, CABAC : Yes
Format settings, ReFrames : 4 frames
Codec ID : 27
Duration : 4mn 47s
Bit rate mode : Variable
Bit rate : 9 955 Kbps
Maximum bit rate : 15.0 Mbps
Width : 1 440 pixels
Height : 1 080 pixels
Display aspect ratio : 16:9
Frame rate : 29.970 fps
Standard : Component
Color space : YUV
Chroma subsampling : 4:2:0
Bit depth : 8 bits
Scan type : MBAFF
Bits/(Pixel*Frame) : 0.214
Stream size : 342 MiB (94%)
Color primaries : BT.709
Transfer characteristics : BT.709
Matrix coefficients : BT.709

Audio
ID : 4162 (0x1042)
Menu ID : 33410 (0x8282)
Format : AAC
Format/Info : Advanced Audio Codec
Format version : Version 2
Format profile : LC
Muxing mode : ADTS
Codec ID : 15
Duration : 4mn 47s
Bit rate mode : Variable
Bit rate : 144 Kbps
Channel count : 2 channels
Channel positions : Front: L R
Sampling rate : 48.0 KHz
Compression mode : Lossy
Delay relative to video : -59ms
Stream size : 4.94 MiB (1%)

Image

Files in torrent:

Show files

User comments:

No user comments have been posted.

Post a comment:

You need to be logged in to post a comment.
You need to be logged in with a trusted account to use the chatbox.
[Sticky] <Nyaa> We will of course be playing Star Citizen. If you have a game package with alpha access, you can join our piracy and smuggling efforts right here. See you in the 'verse!
[04-24, 14:25 UTC] <aers> Have a nice day
[04-24, 14:19 UTC] <tyrael> Well Robby, if chat is opened to all useds it will be yet again a spam fest of people begging to seen this or that ID
[04-24, 11:12 UTC] <neto_rare> but i belong to someone else, sorry.
[04-24, 10:17 UTC] <Cheesecake Militia> wow ntr pls I daisuki you don't be like that
[04-24, 09:48 UTC] <lae> get the circlejerking lube ready
[04-24, 05:13 UTC] <torchlight> But, green circlejerk.
[04-24, 01:33 UTC] <RobbyLob> @Mods: Please change the chatbox so any registered user can post here, since it seems like it's been restricted to certain types of users.
[04-23, 23:32 UTC] <NewDragon> chat need moderator for users trusted stories are boring )
[04-23, 23:30 UTC] <NewDragon> so now caht only for trusted users?
[04-23, 20:05 UTC] <RobbyLob> I don't see how restricting the chatbox to trusted-users/mods make is any more conducive to meaningful conversation, or more directly, any less likely to be fulled of pointless, trivial bullshit.
[04-23, 19:16 UTC] <OnDeed> hehe, so it's back to the "some people are permitted in, but they don't have anything to say" stage :)
[04-23, 19:05 UTC] <Eroyume> 20 eroge on the 25th (Rance 9, fuck yeah). More videos for you forever alones.
[04-23, 19:03 UTC] <Eroyume> Where are the greys?
[04-23, 17:44 UTC] <ReinForce> Just do it!
[04-23, 16:29 UTC] <Commie> How do I download anime?
[04-23, 15:03 UTC] <neto_rare> pls ban lae and skdicks
[04-23, 13:00 UTC] <Cheesecake Militia> are plebs not allowed to touch things again?
[04-23, 12:40 UTC] <CiQ> hell'o
[04-23, 12:13 UTC] <Seizhan> hello just hello
[04-23, 10:39 UTC] <lae> ohayo iegg-tang!!
[04-23, 10:27 UTC] <IEgg> ohayo minasang!
[04-23, 09:51 UTC] <neto_rare> pls ban koleans
[04-23, 09:50 UTC] <ReinForce> 'hello chatbox' >> hello world
[04-23, 09:25 UTC] <bakatotestto> \(hello)/
[04-23, 07:28 UTC] <neto_rare> hello chatbox
[04-23, 07:00 UTC] <aers> Hello
[04-23, 06:58 UTC] <lae> someone get me a funnel
[04-23, 06:53 UTC] <Ichigo69> Hi aers!
[04-23, 06:35 UTC] <aers> You first RHE
[04-23, 05:17 UTC] <ReinForce> @DJATOM > one one one one///
[04-23, 05:16 UTC] <DJATOM> 'sup, guys \o
[04-23, 04:31 UTC] <RHExcelion> go away noko
[04-23, 02:20 UTC] <Noko> Hello internets