Live Action >> Live Action Promotional VideoFlag torrent
    
Name:Saito Kazuyoshi - Always [1440x1080 h264 SSTV HD].tsDate:2013-08-28, 04:58 UTC
Submitter:0x99Seeders:1
Tracker:http://open.nyaatorrents.info:6544/announceLeechers:0
Information:http://gDownloads:874
Stardom:0 fans.File size:364.7 MiB
Download .txt
Download
Vuze with the Mainline DHT plugin is the recommended client.
Playback help is here, and you probably need it.

Torrent description:


ID : 12292 (0x3004)
Complete name : Saito Kazuyoshi - Always [1440x1080 h264 SSTV HD].ts
Format : MPEG-TS
File size : 365 MiB
Duration : 4mn 47s
Overall bit rate mode : Variable
Overall bit rate : 10.6 Mbps

Video
ID : 4098 (0x1002)
Menu ID : 33410 (0x8282)
Format : AVC
Format/Info : Advanced Video Codec
Format profile : Main@L4.0
Format settings, CABAC : Yes
Format settings, ReFrames : 4 frames
Codec ID : 27
Duration : 4mn 47s
Bit rate mode : Variable
Bit rate : 9 955 Kbps
Maximum bit rate : 15.0 Mbps
Width : 1 440 pixels
Height : 1 080 pixels
Display aspect ratio : 16:9
Frame rate : 29.970 fps
Standard : Component
Color space : YUV
Chroma subsampling : 4:2:0
Bit depth : 8 bits
Scan type : MBAFF
Bits/(Pixel*Frame) : 0.214
Stream size : 342 MiB (94%)
Color primaries : BT.709
Transfer characteristics : BT.709
Matrix coefficients : BT.709

Audio
ID : 4162 (0x1042)
Menu ID : 33410 (0x8282)
Format : AAC
Format/Info : Advanced Audio Codec
Format version : Version 2
Format profile : LC
Muxing mode : ADTS
Codec ID : 15
Duration : 4mn 47s
Bit rate mode : Variable
Bit rate : 144 Kbps
Channel count : 2 channels
Channel positions : Front: L R
Sampling rate : 48.0 KHz
Compression mode : Lossy
Delay relative to video : -59ms
Stream size : 4.94 MiB (1%)

Image

Files in torrent:

Show files

User comments:

Show comments