Audio >> LosslessFlag torrent
    
Name:Shirogane no Cal to Soukuu no Jouou ED Single — Sunrise! [Hasegawa Akiko] [flac+scans+cue+log] [VGCD-1048]Date:2010-08-29, 16:10 UTC
Submitter:dark_ogamiya [Subscribe]Seeders:0
Tracker:http://open.nyaatorrents.info:6544/announceLeechers:1
Information:Downloads:758
Stardom:0 fans.File size:256 MiB
Download .txt
Download
Vuze with the Mainline DHT plugin is the recommended client.
Playback help is right here. :3

Torrent description:

Image


Exact Audio Copy V0.99 prebeta 5 from 4. May 2009

EAC 取り込みログファイル 日付 : 10. 7月 2010, 11:23

長谷川明子 / Sunrise!

使用ドライブ : Optiarc DVD RW AD-7590T Adapter: 2 ID: 0

読み込みモード : セキュアモード
ドライブが正確なデータ転送能力を持つ : はい
オーディオキャッシュを使用できる : いいえ
C2エラー情報を検出する : いいえ

読み込みサンプルオフセット訂正値 : 48
リードイン・リードアウトをオーバーリードする : いいえ
欠落したオフセットサンプルを無音で補完する : はい
曲の先頭と末端の無音領域を削除する : いいえ
CRC計算で無音のサンプルを使用するか : いいえ
使用インターフェース : Win NT & 2000用のクラスドライバ

使用出力モード : 内蔵WAV出力ルーチン
サンプルフォーマット : 44.100 Hz; 16 Bit; ステレオ
使用したエンコードオフセットの値 : : 48


TOC情報を抜き出します

トラック | スタート | 長さ | 始めのセクター | 最終セクター
----------------------------------------------------------------
1 | 0:00.00 | 5:49.52 | 0 | 26226
2 | 5:49.52 | 6:16.19 | 26227 | 54445
3 | 12:05.71 | 4:20.17 | 54446 | 73962
4 | 16:26.13 | 5:49.13 | 73963 | 100150
5 | 22:15.26 | 6:16.07 | 100151 | 128357
6 | 28:31.33 | 5:36.67 | 128358 | 153624


範囲取り込みステータス & エラー

選択された範囲

ファイル名 C:\UP\長谷川明子 - Sunrise!.wav

ピークレベル 98.8 %
範囲取り込み品質 100.0 %
コピーCRC 09470020
コピー OK

エラーは発生しませんでした

ステータス報告完了

Files in torrent:

[Show files]

User comments:

[Subscribe]

No user comments have been posted.

Post a comment:

You need to be logged in to post a comment.