Anime >> Non-English-translatedFlag torrent
    
Name:[TnS] Mondaiji-tachi ga Isekai Kara Kuru Sou Desu yo - 02 SUB ITA [BD 1080p x264 Hi10p FLAC][9AD033AE].mkvDate:2016-10-31, 10:08 UTC
Submitter:TanoshimiNoSekaiFansub [Subscribe]Seeders:1
Tracker:http://open.nyaatorrents.info:6544/announceLeechers:0
Information:http://tnsfansub.altervista.org/Downloads:571
Stardom:Only 1 fan.File size:909.1 MiB
Download .txt
Download
Vuze with the Mainline DHT plugin is the recommended client.
Playback help is right here. :3

Torrent description:

Image
Mondaiji-tachi ga Isekai Kara Kuru Sou Desu yo? - 02 BD by
Tanoshimi no Sekai Fansub

Image



General
Unique ID : 207718789012107611533757360449575913495 (0x9C452EFEE77049D6BBC2B3BF39FB0817)
Complete name : [TnS] Mondaiji-tachi ga Isekai Kara Kuru Sou Desu yo - 02 [BD 1080p x264 Hi10p FLAC][9AD033AE].mkv
Format : Matroska
Format version : Version 4 / Version 2
File size : 909 MiB
Duration : 23 min 42 s
Overall bit rate mode : Variable
Overall bit rate : 5 363 kb/s
Encoded date : UTC 2016-10-29 14:10:24
Writing application : mkvmerge v9.5.0 ('Quiet Fire') 64bit
Writing library : libebml v1.3.4 + libmatroska v1.4.5
Attachments : HoboStd.otf / Livingst.ttf / PoetsenOne-Regular_0.ttf / Swiss 721 Heavy BT.ttf / Swiss_721_Bold_Rounded_BT.ttf / CAMBRIAB.TTF / ForgottenFuturistRg-Bold.ttf / GearsOfPeace.ttf

Video
ID : 1
Format : AVC
Format/Info : Advanced Video Codec
Format profile : High 10@L5.2
Format settings, CABAC : Yes
Format settings, ReFrames : 16 frames
Codec ID : V_MPEG4/ISO/AVC
Duration : 23 min 42 s
Bit rate : 3 893 kb/s
Width : 1 920 pixels
Height : 1 080 pixels
Display aspect ratio : 16:9
Frame rate mode : Constant
Frame rate : 23.976 (24000/1001) FPS
Color space : YUV
Chroma subsampling : 4:2:0
Bit depth : 10 bits
Scan type : Progressive
Bits/(Pixel*Frame) : 0.078
Stream size : 660 MiB (73%)
Title : [TnS] Mondaiji-tachi ga Isekai Kara Kuru Sou Desu yo - 02 [BD 1080p x264 Hi10p]
Writing library : x264 core 142 r2431+42 c69a006 tMod [10-bit@all X86_64]
Encoding settings : cabac=1 / ref=16 / deblock=1:-2:-2 / analyse=0x3:0x133 / me=umh / subme=11 / psy=1 / fade_compensate=0.50 / psy_rd=0.85:0.00 / mixed_ref=1 / me_range=24 / chroma_me=1 / trellis=2 / 8x8dct=1 / cqm=0 / deadzone=21,11 / fast_pskip=0 / chroma_qp_offset=-2 / threads=12 / lookahead_threads=3 / sliced_threads=0 / nr=0 / decimate=1 / interlaced=0 / bluray_compat=0 / constrained_intra=0 / fgo=0 / bframes=16 / b_pyramid=2 / b_adapt=2 / b_bias=0 / direct=3 / weightb=1 / open_gop=0 / weightp=2 / keyint=400 / keyint_min=23 / scenecut=40 / intra_refresh=0 / rc_lookahead=90 / rc=crf / mbtree=1 / crf=15.0000 / qcomp=0.60 / qpmin=0:0:0 / qpmax=81:81:81 / qpstep=4 / ip_ratio=1.40 / aq=3:0.90 / aq-sensitivity=10.00 / aq-factor=1.00:1.00:1.00 / aq2=0 / aq3=0
Language : Japanese
Default : Yes
Forced : No
Color range : Limited
Color primaries : BT.709
Transfer characteristics : BT.709
Matrix coefficients : BT.709

Audio
ID : 2
Format : FLAC
Format/Info : Free Lossless Audio Codec
Codec ID : A_FLAC
Duration : 23 min 42 s
Bit rate mode : Variable
Bit rate : 1 457 kb/s
Channel(s) : 2 channels
Channel positions : Front: L R
Sampling rate : 48.0 kHz
Frame rate : 11.719 FPS (4096 spf)
Bit depth : 24 bits
Stream size : 247 MiB (27%)
Title : FLAC
Writing library : libFLAC 1.2.1 (UTC 2007-09-17)
Language : Japanese
Default : Yes
Forced : No

Text
ID : 3
Format : ASS
Codec ID : S_TEXT/ASS
Codec ID/Info : Advanced Sub Station Alpha
Duration : 23 min 38 s
Bit rate : 2 669 b/s
Count of elements : 2891
Compression mode : Lossless
Stream size : 462 KiB (0%)
Title : TnS
Language : Italian
Default : Yes
Forced : Yes

Menu
00:00:00.000 : :Prologo
00:00:53.030 : :Opening
00:02:22.990 : :Parte A
00:09:46.060 : :Parte B
00:21:56.000 : :Ending
00:23:26.000 : :Anteprima

Files in torrent:

[Show files]

User comments:

[Subscribe]

No user comments have been posted.

Post a comment:

You need to be logged in to post a comment.