Anime >> Non-English-translatedFlag torrent
    
Name:[TnS] Darker than BLACK - Kuro no Keiyakusha - 02 SUB ITA [BD 1080p x264 FLAC][6104FD9C].mkvDate:2016-11-21, 14:39 UTC
Submitter:TanoshimiNoSekaiFansub [Subscribe]Seeders:6
Tracker:http://open.nyaatorrents.info:6544/announceLeechers:0
Information:http://tnsfansub.altervista.org/Downloads:533
Stardom:0 fans.File size:750.8 MiB
Download .txt
Download
Vuze with the Mainline DHT plugin is the recommended client.
Playback help is right here. :3

Torrent description:

Image
Darker than BLACK - Kuro no Keiyakusha - 02 BD by
Tanoshimi no Sekai Fansub

Image



General
Unique ID : 253747472138657621277132823766255334007 (0xBEE5FC4919FD2271B9E0AB7767B4F277)
Complete name : [TnS] Darker than BLACK - Kuro no Keiyakusha - 02 [BD 1080p x264 FLAC][6104FD9C].mkv
Format : Matroska
Format version : Version 4 / Version 2
File size : 751 MiB
Duration : 24 min 9 s
Overall bit rate mode : Variable
Overall bit rate : 4 345 kb/s
Encoded date : UTC 2016-11-08 15:56:04
Writing application : mkvmerge v9.5.0 ('Quiet Fire') 64bit
Writing library : libebml v1.3.4 + libmatroska v1.4.5
Attachments : Dynk.ttf / HandVetica.ttf / LEHN095.TTF / Montara-Gothic.otf / ufonts.com_copperplate-bold.ttf / arialbd.ttf / BRUSHSTP.ttf / Delius-Regular.ttf / DFLIS6_1.TTC

Video
ID : 1
Format : AVC
Format/Info : Advanced Video Codec
Format profile : High@L5
Format settings, CABAC : Yes
Format settings, ReFrames : 5 frames
Codec ID : V_MPEG4/ISO/AVC
Duration : 24 min 9 s
Bit rate : 2 970 kb/s
Width : 1 920 pixels
Height : 1 080 pixels
Display aspect ratio : 16:9
Frame rate mode : Constant
Frame rate : 23.976 (24000/1001) FPS
Color space : YUV
Chroma subsampling : 4:2:0
Bit depth : 8 bits
Scan type : Progressive
Bits/(Pixel*Frame) : 0.060
Stream size : 513 MiB (68%)
Title : [TnS] Darker than BLACK - Kuro no Keiyakusha - 02 [BD 1080p x264]
Writing library : x264 core 148 r2638 7599210
Encoding settings : cabac=1 / ref=5 / deblock=1:1:1 / analyse=0x3:0x113 / me=umh / subme=9 / psy=1 / psy_rd=0.70:0.00 / mixed_ref=1 / me_range=32 / chroma_me=1 / trellis=0 / 8x8dct=1 / cqm=0 / deadzone=21,11 / fast_pskip=0 / chroma_qp_offset=-2 / threads=12 / lookahead_threads=1 / sliced_threads=0 / nr=0 / decimate=1 / interlaced=0 / bluray_compat=0 / constrained_intra=0 / bframes=3 / b_pyramid=2 / b_adapt=2 / b_bias=0 / direct=1 / weightb=1 / open_gop=0 / weightp=2 / keyint=240 / keyint_min=23 / scenecut=40 / intra_refresh=0 / rc_lookahead=40 / rc=crf / mbtree=1 / crf=17.0 / qcomp=0.60 / qpmin=0 / qpmax=69 / qpstep=4 / ip_ratio=1.40 / aq=1:1.00
Language : Japanese
Default : Yes
Forced : No

Audio
ID : 2
Format : FLAC
Format/Info : Free Lossless Audio Codec
Codec ID : A_FLAC
Duration : 24 min 9 s
Bit rate mode : Variable
Bit rate : 1 335 kb/s
Channel(s) : 6 channels
Channel positions : Front: L C R, Side: L R, LFE
Sampling rate : 48.0 kHz
Frame rate : 41.667 FPS (1152 spf)
Bit depth : 16 bits
Stream size : 231 MiB (31%)
Title : FLAC
Writing library : libFLAC 1.3.1 (UTC 2014-11-25)
Language : Japanese
Default : Yes
Forced : No

Text
ID : 3
Format : ASS
Codec ID : S_TEXT/ASS
Codec ID/Info : Advanced Sub Station Alpha
Duration : 24 min 0 s
Bit rate : 1 494 b/s
Count of elements : 1833
Compression mode : Lossless
Stream size : 263 KiB (0%)
Title : TnS
Language : Italian
Default : Yes
Forced : Yes

Menu
00:00:00.000 : it:
00:01:29.923 : it:
00:03:00.000 : it:
00:12:07.550 : it:
00:22:09.130 : it:
00:23:39.000 : it:

Files in torrent:

[Show files]

User comments:

[Subscribe]

No user comments have been posted.

Post a comment:

You need to be logged in to post a comment.