Anime >> Non-English-translatedFlag torrent
    
Name:[TnS] Kubikiri Cycle: Aoiro Savant to Zaregototsukai - 01v2 SUB ITA [BD 1080p x264 Hi10p FLAC][63FB89FA].mkvDate:2016-11-27, 10:29 UTC
Submitter:TanoshimiNoSekaiFansub [Subscribe]Seeders:8
Tracker:http://open.nyaatorrents.info:6544/announceLeechers:0
Information:http://tnsfansub.altervista.org/Downloads:632
Stardom:Only 1 fan.File size:1.6 GiB
Download .txt
Download
Vuze with the Mainline DHT plugin is the recommended client.
Playback help is right here. :3

Torrent description:

Image
Kubikiri Cycle ~ Aoiro Savant to Zaregototsukai - 01v2 BD by
Tanoshimi no Sekai Fansub

Image



General
Unique ID : 226238795938105772619278110333750863583 (0xAA3401D5C1EDC32C99D1AB7AF5E1E6DF)
Complete name : [TnS] Kubikiri Cycle - Aoiro Savant to Zaregototsukai - 01v2 [BD 1080p x264 Hi10p FLAC][63FB89FA].mkv
Format : Matroska
Format version : Version 4 / Version 2
File size : 1.60 GiB
Duration : 27 min 9 s
Overall bit rate mode : Variable
Overall bit rate : 8 429 kb/s
Encoded date : UTC 2016-11-22 21:49:25
Writing application : mkvmerge v9.5.0 ('Quiet Fire') 64bit
Writing library : libebml v1.3.4 + libmatroska v1.4.5
Attachments : IMPRISHA.TTF / IwaGyoPro-Bd-Kami.ttf / IwaMinPro-Lt-Madoka.ttf / MAIAN.TTF / RomanSerif.ttf / ufonts.com_worldwide.ttf / Alex.ttf / BlackChancery.ttf / CALIBRIB.TTF / HEMIHEAD.TTF

Video
ID : 1
Format : AVC
Format/Info : Advanced Video Codec
Format profile : High 10@L5.2
Format settings, CABAC : Yes
Format settings, ReFrames : 16 frames
Codec ID : V_MPEG4/ISO/AVC
Duration : 27 min 9 s
Bit rate : 6 943 kb/s
Width : 1 920 pixels
Height : 1 080 pixels
Display aspect ratio : 16:9
Frame rate mode : Constant
Frame rate : 23.976 (24000/1001) FPS
Color space : YUV
Chroma subsampling : 4:2:0
Bit depth : 10 bits
Scan type : Progressive
Bits/(Pixel*Frame) : 0.140
Stream size : 1.32 GiB (82%)
Title : [TnS] Kubikiri Cycle ~ Aoiro Savant to Zaregototsukai - 01 [BD 1080p x264 Hi10p]
Writing library : x264 core 142 r2431+42 c69a006 tMod [10-bit@all X86_64]
Encoding settings : cabac=1 / ref=16 / deblock=1:-2:-2 / analyse=0x3:0x133 / me=umh / subme=11 / psy=1 / fade_compensate=0.50 / psy_rd=0.85:0.00 / mixed_ref=1 / me_range=24 / chroma_me=1 / trellis=2 / 8x8dct=1 / cqm=0 / deadzone=21,11 / fast_pskip=0 / chroma_qp_offset=-2 / threads=12 / lookahead_threads=3 / sliced_threads=0 / nr=0 / decimate=1 / interlaced=0 / bluray_compat=0 / constrained_intra=0 / fgo=0 / bframes=16 / b_pyramid=2 / b_adapt=2 / b_bias=0 / direct=3 / weightb=1 / open_gop=0 / weightp=2 / keyint=400 / keyint_min=23 / scenecut=40 / intra_refresh=0 / rc_lookahead=80 / rc=crf / mbtree=1 / crf=14.2500 / qcomp=0.60 / qpmin=0:0:0 / qpmax=81:81:81 / qpstep=4 / ip_ratio=1.40 / aq=3:0.90 / aq-sensitivity=10.00 / aq-factor=1.00:1.00:1.00 / aq2=0 / aq3=0
Language : Japanese
Default : Yes
Forced : No
Color range : Limited
Color primaries : BT.709
Transfer characteristics : BT.709
Matrix coefficients : BT.709

Audio
ID : 2
Format : FLAC
Format/Info : Free Lossless Audio Codec
Codec ID : A_FLAC
Duration : 27 min 9 s
Bit rate mode : Variable
Bit rate : 1 471 kb/s
Channel(s) : 2 channels
Channel positions : Front: L R
Sampling rate : 48.0 kHz
Frame rate : 11.719 FPS (4096 spf)
Bit depth : 24 bits
Stream size : 286 MiB (17%)
Title : FLAC
Writing library : libFLAC 1.3.1 (UTC 2014-11-25)
Language : Japanese
Default : Yes
Forced : No

Text
ID : 3
Format : ASS
Codec ID : S_TEXT/ASS
Codec ID/Info : Advanced Sub Station Alpha
Duration : 26 min 48 s
Bit rate : 221 b/s
Count of elements : 498
Compression mode : Lossless
Stream size : 43.5 KiB (0%)
Title : TnS
Language : Italian
Default : Yes
Forced : Yes

Menu
00:00:00.000 : :
00:02:57.677 : :
00:05:35.627 : :
00:08:28.508 : :
00:12:16.986 : :
00:19:24.121 : :
00:21:37.630 : :
00:25:38.996 : :

Files in torrent:

[Show files]

User comments:

[Subscribe]

No user comments have been posted.

Post a comment:

You need to be logged in to post a comment.