Anime >> Non-English-translatedFlag torrent
    
Name:[TnS] Kubikiri Cycle: Aoiro Savant to Zaregototsukai - 02 SUB ITA [BD 720p x264 Hi10p AAC][859BDF9D].mkvDate:2016-12-14, 21:07 UTC
Submitter:TanoshimiNoSekaiFansub [Subscribe]Seeders:5
Tracker:http://open.nyaatorrents.info:6544/announceLeechers:0
Information:http://tnsfansub.altervista.org/Downloads:627
Stardom:Only 1 fan.File size:324.1 MiB
Download .txt
Download
Vuze with the Mainline DHT plugin is the recommended client.
Playback help is right here. :3

Torrent description:

Image
Kubikiri Cycle ~ Aoiro Savant to Zaregototsukai - 02 BD by
Tanoshimi no Sekai Fansub

Image



General
Unique ID : 174506062092277478009890660270827808983 (0x8348A521BD1AC439996CA6F4C882A8D7)
Complete name : [TnS] Kubikiri Cycle - Aoiro Savant to Zaregototsukai - 02 [BD 720p x264 Hi10p AAC][859BDF9D].mkv
Format : Matroska
Format version : Version 4 / Version 2
File size : 324 MiB
Duration : 25 min 25 s
Overall bit rate : 1 782 kb/s
Encoded date : UTC 2016-12-13 16:19:17
Writing application : mkvmerge v9.5.0 ('Quiet Fire') 64bit
Writing library : libebml v1.3.4 + libmatroska v1.4.5
Attachments : CALIBRIB.TTF / DFLIS6_0.TTC / HEMIHEAD.TTF / IMPRISHA.TTF / IwaGyoPro-Bd-Kami.ttf / MAIAN.TTF / ufonts.com_worldwide.ttf / Alex.ttf / BlackChancery.ttf

Video
ID : 1
Format : AVC
Format/Info : Advanced Video Codec
Format profile : High 10@L5.2
Format settings, CABAC : Yes
Format settings, ReFrames : 16 frames
Codec ID : V_MPEG4/ISO/AVC
Duration : 25 min 25 s
Bit rate : 1 489 kb/s
Width : 1 280 pixels
Height : 720 pixels
Display aspect ratio : 16:9
Frame rate mode : Constant
Frame rate : 23.976 (24000/1001) FPS
Color space : YUV
Chroma subsampling : 4:2:0
Bit depth : 10 bits
Scan type : Progressive
Bits/(Pixel*Frame) : 0.067
Stream size : 271 MiB (84%)
Title : [TnS] Kubikiri Cycle ~ Aoiro Savant to Zaregototsukai - 02 [BD 720p x264 Hi10p]
Writing library : x264 core 142 r2431+42 c69a006 tMod [10-bit@all X86_64]
Encoding settings : cabac=1 / ref=16 / deblock=1:-2:-2 / analyse=0x3:0x133 / me=umh / subme=11 / psy=1 / fade_compensate=0.50 / psy_rd=0.85:0.00 / mixed_ref=1 / me_range=24 / chroma_me=1 / trellis=2 / 8x8dct=1 / cqm=0 / deadzone=21,11 / fast_pskip=0 / chroma_qp_offset=-2 / threads=12 / lookahead_threads=3 / sliced_threads=0 / nr=0 / decimate=1 / interlaced=0 / bluray_compat=0 / constrained_intra=0 / fgo=0 / bframes=16 / b_pyramid=2 / b_adapt=2 / b_bias=0 / direct=3 / weightb=1 / open_gop=0 / weightp=2 / keyint=400 / keyint_min=23 / scenecut=40 / intra_refresh=0 / rc_lookahead=80 / rc=crf / mbtree=1 / crf=16.7000 / qcomp=0.60 / qpmin=0:0:0 / qpmax=81:81:81 / qpstep=4 / ip_ratio=1.40 / aq=3:0.90 / aq-sensitivity=10.00 / aq-factor=1.00:1.00:1.00 / aq2=0 / aq3=0
Language : Japanese
Default : Yes
Forced : No
Color range : Limited
Color primaries : BT.709
Transfer characteristics : BT.709
Matrix coefficients : BT.709

Audio
ID : 2
Format : AAC
Format/Info : Advanced Audio Codec
Format profile : LC
Codec ID : A_AAC
Duration : 25 min 20 s
Bit rate : 257 kb/s
Channel(s) : 2 channels
Channel positions : Front: L R
Sampling rate : 48.0 kHz
Frame rate : 46.875 FPS (1024 spf)
Compression mode : Lossy
Delay relative to video : 20 ms
Stream size : 46.6 MiB (14%)
Title : AAC
Language : Japanese
Default : Yes
Forced : No

Text
ID : 3
Format : ASS
Codec ID : S_TEXT/ASS
Codec ID/Info : Advanced Sub Station Alpha
Duration : 25 min 10 s
Bit rate : 448 b/s
Count of elements : 854
Compression mode : Lossless
Stream size : 82.7 KiB (0%)
Title : TnS
Language : Italian
Default : Yes
Forced : Yes

Menu
00:00:00.000 : en:Chapter 1
00:02:30.150 : en:Chapter 2
00:04:00.157 : en:Chapter 3
00:09:07.213 : en:Chapter 4
00:11:30.148 : en:Chapter 5
00:13:40.111 : en:Chapter 6
00:18:30.609 : en:Chapter 7
00:20:27.560 : en:Chapter 8
00:23:21.358 : en:Chapter 9
00:23:50.137 : en:Chapter 10

Files in torrent:

[Show files]

User comments:

[Subscribe]

No user comments have been posted.

Post a comment:

You need to be logged in to post a comment.