Anime >> Non-English-translatedFlag torrent
    
Name:[TnS] Campione! - 11 SUB ITA [BD 1080p x264 Hi10p FLAC][E71D6F9B].mkvDate:2016-12-19, 16:45 UTC
Submitter:TanoshimiNoSekaiFansub [Subscribe]Seeders:3
Tracker:http://open.nyaatorrents.info:6544/announceLeechers:0
Information:http://tnsfansub.altervista.org/Downloads:376
Stardom:Only 1 fan.File size:1.15 GiB
Download .txt
Download
Vuze with the Mainline DHT plugin is the recommended client.
Playback help is right here. :3

Torrent description:

Image
Campione! - 11 BD by
Tanoshimi no Sekai Fansub

Image



Generale
Unique ID : 244139817329691078319120341677760146517 (0xB7AB9E54C97E25BFB2856C39AFED6C55)
Complete name : [TnS] Campione! - 11 [BD 1080p x264 Hi10p FLAC][E71D6F9B].mkv
Format : Matroska
Format version : Version 4 / Version 2
File size : 1,15 GiB
Duration : 23 min 48s
Overall bit rate mode : Variabile
Overall bit rate : 6.918 kb/s
Encoded date : UTC 2016-12-16 11:57:14
Writing application : mkvmerge v9.5.0 ('Quiet Fire') 64bit
Writing library : libebml v1.3.4 + libmatroska v1.4.5
Attachments : Ad Hoc Bis.ttf / Adventures & Overlanders.ttf / aquafont.ttf / ARTIS_0.TTF / BlackChancery.ttf / calligraph421-bt-roman.ttf / Codex LT.ttf / Diverda Sans Com Medium.ttf / Fontin_Sans.otf / Fontin_Sans_BI.otf / GODOFWAR.TTF / immortal.ttf / Kratos TrueType.ttf / PoetsenOne-Regular.ttf / Reisho101Std-Medium.otf

Video
ID : 1
Format : AVC
Format/Info : Advanced Video Codec
Format profile : High 10@L5.2
Format settings, CABAC : Si
Format settings, ReFrames : 16 frame
Codec ID : V_MPEG4/ISO/AVC
Duration : 23 min 48s
Bit rate : 5.385 kb/s
Width : 1.920 pixel
Height : 1.080 pixel
Display aspect ratio : 16:9
Frame rate mode : Costante
Frame rate : 23,976 (24000/1001) FPS
Color space : YUV
Chroma subsampling : 4:2:0
Bit depth : 10 bit
Scan type : Progressivo
Bits/(Pixel*Frame) : 0.108
Stream size : 917MiB (78%)
Title : [TnS] Campione! - 11 [BD 1080p x264 Hi10p]
Writing library : x264 core 142 r2431+42 c69a006 tMod [10-bit@all X86_64]
Encoding settings : cabac=1 / ref=16 / deblock=1:-1:-2 / analyse=0x3:0x133 / me=umh / subme=11 / psy=1 / fade_compensate=0.50 / psy_rd=0.88:0.00 / mixed_ref=1 / me_range=24 / chroma_me=1 / trellis=2 / 8x8dct=1 / cqm=0 / deadzone=21,11 / fast_pskip=0 / chroma_qp_offset=-2 / threads=12 / lookahead_threads=3 / sliced_threads=0 / nr=0 / decimate=1 / interlaced=0 / bluray_compat=0 / constrained_intra=0 / fgo=0 / bframes=16 / b_pyramid=2 / b_adapt=2 / b_bias=0 / direct=3 / weightb=1 / open_gop=0 / weightp=2 / keyint=400 / keyint_min=23 / scenecut=40 / intra_refresh=0 / rc_lookahead=90 / rc=crf / mbtree=1 / crf=15.0000 / qcomp=0.60 / qpmin=0:0:0 / qpmax=81:81:81 / qpstep=4 / ip_ratio=1.40 / aq=3:0.90 / aq-sensitivity=10.00 / aq-factor=1.00:1.00:1.00 / aq2=0 / aq3=0
Language : Giapponese
Default : Si
Forced : No
Color range : Limited
Color primaries : BT.709
Transfer characteristics : BT.709
Matrix coefficients : BT.709

Audio
ID : 2
Format : FLAC
Format/Info : Free Lossless Audio Codec
Codec ID : A_FLAC
Duration : 23 min 48s
Bit rate mode : Variabile
Bit rate : 1.456 kb/s
Channel(s) : 2 canali
Channel positions : Front: L R
Sampling rate : 48,0 kHz
Frame rate : 11,719 FPS (4096 spf)
Bit depth : 24 bit
Delay relative to video : 16 ms
Stream size : 248MiB (21%)
Title : FLAC
Writing library : libFLAC 1.2.1 (UTC 2007-09-17)
Language : Giapponese
Default : Si
Forced : No

Testo
ID : 3
Format : ASS
Codec ID : S_TEXT/ASS
Codec ID/Info : Advanced Sub Station Alpha
Duration : 23 min 37s
Bit rate : 8.609 b/s
Count of elements : 4610
Compression mode : Senza perdita
Stream size : 1,45MiB (0%)
Title : TnS
Language : Italiano
Default : Si
Forced : Si

Menu
00:00:00.000 : :Prologo
00:00:59.030 : :Opening
00:02:29.000 : :Parte A
00:11:07.980 : :
00:11:09.230 : :Parte B
00:22:00.960 : :Ending
00:23:30.970 : :Anteprima

Files in torrent:

[Show files]

User comments:

[Subscribe]

No user comments have been posted.

Post a comment:

You need to be logged in to post a comment.