Anime >> Non-English-translatedFlag torrent
    
Name:[TnS] Chaos Head 01-12 SUB ITA [BD 1080p H.264 Hi10p FLAC MKV]Date:2016-12-22, 21:45 UTC
Submitter:TanoshimiNoSekaiFansub [Subscribe]Seeders:4
Tracker:http://open.nyaatorrents.info:6544/announceLeechers:3
Information:http://tnsfansub.altervista.org/Downloads:605
Stardom:Only 1 fan.File size:12.94 GiB
Download .txt
Download
Vuze with the Mainline DHT plugin is the recommended client.
Playback help is right here. :3

Torrent description:

Image
Chaos Head 01-12 BD pack by
Tanoshimi no Sekai Fansub

Image



Specs for all videos
Format : Matroska
Format version : Version 4 / Version 2
Format : AVC
Format/Info : Advanced Video Codec
Format profile : High 10@L5
Format settings, CABAC : Yes
Format settings, ReFrames : 8 frames
Codec ID : V_MPEG4/ISO/AVC
Width : 1 920 pixels
Height : 1 080 pixels
Display aspect ratio : 16:9
Frame rate mode : Constant
Frame rate : 23.976 (24000/1001) fps
Color space : YUV
Chroma subsampling : 4:2:0
Bit depth : 10 bits
Scan type : Progressive
Writing library : x264 core 129 r2245+704+35 dbbd7a1 tMod [10-bit@4:2:0 X86_64]
Encoding settings : cabac=1 / ref=8 / deblock=1:0:0 / analyse=0x3:0x133 / me=umh / subme=10 / psy=1 / fade_compensate=0.00 / psy_rd=0.60:0.15 / mixed_ref=1 / me_range=32 / chroma_me=1 / trellis=2 / 8x8dct=1 / cqm=0 / deadzone=21,11 / fast_pskip=0 / chroma_qp_offset=-3 / threads=12 / lookahead_threads=2 / sliced_threads=0 / nr=0 / decimate=0 / interlaced=0 / bluray_compat=0 / constrained_intra=0 / fgo=3 / bframes=12 / b_pyramid=2 / b_adapt=2 / b_bias=0 / direct=3 / weightb=1 / open_gop=0 / weightp=3 / keyint=infinite / keyint_min=1 / scenecut=40 / intra_refresh=0 / rc_lookahead=72 / rc=crf / mbtree=1 / crf=17.0000 / qcomp=0.80 / qpmin=0 / qpmax=81 / qpstep=4 / ip_ratio=1.40 / aq=3:0.80

Specs for all audio tracks
Format : FLAC
Format/Info : Free Lossless Audio Codec
Codec ID : A_FLAC
Bit rate mode : Variable
Channel(s) : 2 channels
Channel positions : Front: L R
Sampling rate : 48.0 KHz
Bit depth : 24 bits
Title : FLAC
Writing library : libFLAC 1.2.1 (UTC 2007-09-17)
Language : Japanese
Default : Yes
Forced : No


General
Unique ID : 190496743280122329348998139307445032231 (0x8F50569587A072639E3BA9E84A2D9527)
Complete name : [TnS] Chaos Head - 01 [BD 1080p x264 Hi10p FLAC][8ED855DD].mkv
File size : 1.07 GiB
Duration : 26mn 53s
Overall bit rate mode : Variable
Overall bit rate : 5 696 Kbps
Encoded date : UTC 2016-04-17 15:42:48
Writing application : mkvmerge v9.0.1 ('Obstacles') 64bit
Writing library : libebml v1.3.3 + libmatroska v1.4.4
Attachments : a-otf-happynstd-debold.otf / CALIBRIB.TTF / CTMercuriusStd-Medium_0.otf / HandVetica.ttf / LT_70895i.ttf / MAGIC.TTF / MAIAN.TTF / Marker-Extended-Italic.ttf / Rom_Ftl_Srif.TTF / TodaySHOP-Medium.otf / ufonts.com_benoit-bold.ttf / You Are Loved.ttf / agbookrounded-regular.otf

Video
ID : 1
Duration : 26mn 41s
Bit rate : 4 294 Kbps
Bits/(Pixel*Frame) : 0.086
Stream size : 820 MiB (75%)
Title : [Tsundere] Chaos;HEad - 01 [BD 1080p x264 Hi10p]
Language : Japanese
Default : Yes
Forced : No

Audio
ID : 2
Duration : 26mn 41s
Bit rate : 1 413 Kbps
Frame rate : 11.719 fps (4096 spf)
Stream size : 270 MiB (25%)

Text
ID : 3
Format : ASS
Codec ID : S_TEXT/ASS
Codec ID/Info : Advanced Sub Station Alpha
Duration : 26mn 48s
Bit rate : 16.9 Kbps
Count of elements : 14087
Compression mode : Lossless
Stream size : 3.23 MiB (0%)
Title : TnS
Language : Italian
Default : Yes
Forced : Yes

Menu
00:00:00.000 : :Intro
00:01:41.101 : :OP
00:03:15.487 : :Episode
00:24:59.999 : :ED
00:26:30.047 : :Preview



General
Unique ID : 237003421372571911819391084113123556824 (0xB24D32D8641F5D769AD6508203533DD8)
Complete name : [TnS] Chaos Head - 02 [BD 1080p x264 Hi10p FLAC][45314768].mkv
File size : 1.19 GiB
Duration : 26mn 53s
Overall bit rate mode : Variable
Overall bit rate : 6 318 Kbps
Encoded date : UTC 2016-04-22 11:57:22
Writing application : mkvmerge v9.0.1 ('Obstacles') 64bit
Writing library : libebml v1.3.3 + libmatroska v1.4.4
Attachments : LT_70895i.ttf / MAGIC.TTF / Rom_Ftl_Srif.TTF / ufonts.com_benoit-bold.ttf / uwch.ttf / You Are Loved.ttf / a-otf-happynstd-debold.otf / CALIBRIB.TTF / CONSOLAB.TTF / CTMercuriusStd-Medium_0.otf / HandVetica.ttf / Lato-Bold.ttf

Video
ID : 1
Duration : 26mn 41s
Bit rate : 4 914 Kbps
Bits/(Pixel*Frame) : 0.099
Stream size : 938 MiB (77%)
Title : [TnS] Chaos Head - 02 [BD 1080p x264 Hi10p]
Language : Japanese
Default : Yes
Forced : No

Audio
ID : 2
Duration : 26mn 41s
Bit rate : 1 415 Kbps
Frame rate : 11.719 fps (4096 spf)
Stream size : 270 MiB (22%)

Text
ID : 3
Format : ASS
Codec ID : S_TEXT/ASS
Codec ID/Info : Advanced Sub Station Alpha
Duration : 26mn 42s
Bit rate : 16.9 Kbps
Count of elements : 13987
Compression mode : Lossless
Stream size : 3.22 MiB (0%)
Title : TnS
Language : Italian
Default : Yes
Forced : Yes

Menu
00:01:41.101 : :OP
00:01:30.048 : :Episode
00:24:59.957 : :ED
00:26:30.005 : :Preview



General
Unique ID : 197224281373739494307269164070533481767 (0x946003D22D4485798CE351772B1E4527)
Complete name : [TnS] Chaos Head - 03 [BD 1080p x264 Hi10p FLAC][50D0258D].mkv

File size : 1.21 GiB
Duration : 26mn 53s
Overall bit rate mode : Variable
Overall bit rate : 6 458 Kbps
Encoded date : UTC 2016-04-30 20:15:08
Writing application : mkvmerge v9.1.0 ('Little Earthquakes') 64bit
Writing library : libebml v1.3.3 + libmatroska v1.4.4
Attachments : CALIBRIB.TTF / CTMercuriusStd-Medium_0.otf / HandVetica.ttf / LT_70895i.ttf / MAGIC.TTF / MAIAN.TTF / Maritime Tropical Neue Double Bold.ttf / Paint-hand_limited-set.ttf / Rom_Ftl_Srif.TTF / RoughDraught.ttf / ufonts.com_benoit-bold.ttf / You Are Loved.ttf / a-otf-happynstd-debold.otf / calibriz.ttf / CT_Mercurius.ttf / LT_70895i.ttf / MAGIC.TTF / Rom_Ftl_Srif.TTF / TravelingTypewriter.ttf

Video
ID : 1
Duration : 26mn 41s
Bit rate : 5 021 Kbps
Bits/(Pixel*Frame) : 0.101
Stream size : 959 MiB (77%)
Title : [TnS] Chaos Head - 03 [BD 1080p x264 Hi10p]
Language : Japanese
Default : Yes
Forced : No

Audio
ID : 2
Duration : 26mn 41s
Bit rate : 1 445 Kbps
Frame rate : 11.719 fps (4096 spf)
Stream size : 276 MiB (22%)

Text
ID : 3
Format : ASS
Codec ID : S_TEXT/ASS
Codec ID/Info : Advanced Sub Station Alpha
Duration : 26mn 42s
Bit rate : 16.8 Kbps
Count of elements : 13917
Compression mode : Lossless
Stream size : 3.22 MiB (0%)
Title : TnS
Language : Italian
Default : Yes
Forced : Yes

Menu
00:01:41.101 : :OP
00:01:30.048 : :Episode
00:24:59.957 : :ED
00:26:30.005 : :Preview



General
Unique ID : 219191297674800301630537538863916451778 (0xA4E6B5580146581C8D66B3608EED07C2)
Complete name : [TnS] Chaos Head - 04 [BD 1080p x264 Hi10p FLAC][AFA3ACFD].mkv
File size : 1 023 MiB
Duration : 26mn 52s
Overall bit rate mode : Variable
Overall bit rate : 5 321 Kbps
Encoded date : UTC 2016-05-07 11:13:24
Writing application : mkvmerge v9.1.0 ('Little Earthquakes') 64bit
Writing library : libebml v1.3.3 + libmatroska v1.4.4
Attachments : CTMercuriusStd-Medium_0.otf / HandVetica.ttf / LT_70895i.ttf / MAGIC.TTF / Paint-hand_limited-set.ttf / Rom_Ftl_Srif.TTF / second breakfast.ttf / ufonts.com_benoit-bold.ttf / You Are Loved.ttf / a-otf-happynstd-debold.otf / CONSOLAB.TTF

Video
ID : 1
Duration : 26mn 41s
Bit rate : 3 911 Kbps
Bits/(Pixel*Frame) : 0.079
Stream size : 747 MiB (73%)
Title : [TnS] Chaos Head - 04 [BD 1080p x264 Hi10p]
Default : Yes
Forced : No

Audio
ID : 2
Duration : 26mn 41s
Bit rate : 1 418 Kbps
Frame rate : 11.719 fps (4096 spf)
Stream size : 271 MiB (26%)

Text
ID : 3
Format : ASS
Codec ID : S_TEXT/ASS
Codec ID/Info : Advanced Sub Station Alpha
Duration : 26mn 42s
Bit rate : 17.1 Kbps
Count of elements : 14302
Compression mode : Lossless
Stream size : 3.27 MiB (0%)
Title : TnS
Language : Italian
Default : Yes
Forced : Yes

Menu
00:01:41.101 : :OP
00:01:30.048 : :Episode
00:24:59.957 : :ED
00:26:30.005 : :Preview
[spoiler="Spoiler (click to toggle)"]

[spoiler="Episode 05"]
General
Unique ID : 182299504165931235419011045474791774077 (0x89259B7E0AF83843B157852961E2D77D)
Complete name : [TnS] Chaos Head - 05 [BD 1080p x264 Hi10p FLAC][BEE65C7D].mkv
File size : 1.01 GiB
Duration : 26mn 50s
Overall bit rate mode : Variable
Overall bit rate : 5 361 Kbps
Encoded date : UTC 2016-05-15 10:09:11
Writing application : mkvmerge v9.1.0 ('Little Earthquakes') 64bit
Writing library : libebml v1.3.3 + libmatroska v1.4.4
Attachments : CALIBRIB.TTF / CONSOLAB.TTF / CTMercuriusStd-Medium_0.otf / HandVetica.ttf / HANDYCANDY.TTF / LT_70895i.ttf / MAGIC.TTF / Rom_Ftl_Srif.TTF / ufonts.com_benoit-bold.ttf / You Are Loved.ttf / AldotheApache.ttf / a-otf-happynstd-debold.otf

Video
ID : 1
Duration : 26mn 41s
Bit rate : 3 937 Kbps
Bits/(Pixel*Frame) : 0.079
Stream size : 752 MiB (73%)
Title : [TnS] Chaos Head - 05 [BD 1080p x264 Hi10p]
Language : Japanese
Default : Yes
Forced : No

Audio
ID : 2
Duration : 26mn 41s
Bit rate : 1 423 Kbps
Frame rate : 11.719 fps (4096 spf)
Stream size : 272 MiB (26%)

Text
ID : 3
Format : ASS
Codec ID : S_TEXT/ASS
Codec ID/Info : Advanced Sub Station Alpha
Duration : 26mn 40s
Bit rate : 16.9 Kbps
Count of elements : 13950
Compression mode : Lossless
Stream size : 3.22 MiB (0%)
Title : TnS
Language : Italian
Default : Yes
Forced : Yes

Menu
00:01:41.101 : :OP
00:01:30.048 : :Episode
00:24:59.957 : :ED
00:26:30.005 : :Preview



General
Unique ID : 246896132529355607094277540212191534829 (0xB9BE7729A48DDF86B6E378073DA81EED)
Complete name : [TnS] Chaos Head - 06 [BD 1080p x264 Hi10p FLAC][DB7C192B].mkv
File size : 1 011 MiB
Duration : 26mn 50s
Overall bit rate mode : Variable
Overall bit rate : 5 267 Kbps
Movie name : Chäos;HEad E06: Embracement
Encoded date : UTC 2016-05-22 19:48:12
Writing application : mkvmerge v9.1.0 ('Little Earthquakes') 64bit
Writing library : libebml v1.3.3 + libmatroska v1.4.4
Attachments : MAGIC.TTF / MAIAN.TTF / Rom_Ftl_Srif.TTF / ufonts.com_benoit-bold.ttf / You Are Loved.ttf / a-otf-happynstd-debold.otf / CTMercuriusStd-Medium_0.otf / HandVetica.ttf / LT_70895i.ttf

Video
ID : 1
Duration : 26mn 41s
Bit rate : 3 842 Kbps
Bits/(Pixel*Frame) : 0.077
Stream size : 733 MiB (73%)
Title : [TnS] Chaos Head - 06 [BD 1080p x264 Hi10p]
Language : Japanese
Default : Yes
Forced : No

Audio
ID : 2
Duration : 26mn 41s
Bit rate : 1 430 Kbps
Frame rate : 11.719 fps (4096 spf)
Stream size : 273 MiB (27%)

Text
ID : 3
Format : ASS
Codec ID : S_TEXT/ASS
Codec ID/Info : Advanced Sub Station Alpha
Duration : 26mn 40s
Bit rate : 17.1 Kbps
Count of elements : 14297
Compression mode : Lossless
Stream size : 3.26 MiB (0%)
Title : TnS
Language : Italian
Default : Yes
Forced : Yes

Menu
00:01:41.101 : :OP
00:01:30.048 : :Episode
00:24:59.957 : :ED
00:26:30.005 : :Preview



General
Unique ID : 200573037266026581100169904074781160427 (0x96E4F63BD9851D56AD43DB436568F3EB)
Complete name : [TnS] Chaos Head - 07 [BD 1080p x264 Hi10p FLAC][C253CA54].mkv
File size : 1.04 GiB
Duration : 26mn 50s
Overall bit rate mode : Variable
Overall bit rate : 5 548 Kbps
Encoded date : UTC 2016-05-25 18:03:45
Writing application : mkvmerge v9.1.0 ('Little Earthquakes') 64bit
Writing library : libebml v1.3.3 + libmatroska v1.4.4
Attachments : MAIAN.TTF / MAREENSPRINT_NEXT.TTF / Rom_Ftl_Srif.TTF / SinkinSans-700Bold.otf / ufonts.com_benoit-bold.ttf / You Are Loved.ttf / a-otf-happynstd-debold.otf / CALIBRIB.TTF / CALIBRII.TTF / CTMercuriusStd-Medium_0.otf / FontOnAStick.ttf / HandVetica.ttf / LT_70895i.ttf / MAGIC.TTF

Video
ID : 1
Duration : 26mn 41s
Bit rate : 4 074 Kbps
Bits/(Pixel*Frame) : 0.082
Stream size : 778 MiB (73%)
Title : [TnS] Chaos Head - 07 [BD 1080p x264 Hi10p]
Default : Yes
Forced : No

Audio
ID : 2
Duration : 26mn 41s
Bit rate : 1 472 Kbps
Frame rate : 11.719 fps (4096 spf)
Stream size : 281 MiB (26%)

Text
ID : 3
Format : ASS
Codec ID : S_TEXT/ASS
Codec ID/Info : Advanced Sub Station Alpha
Duration : 26mn 40s
Bit rate : 16.9 Kbps
Count of elements : 13984
Compression mode : Lossless
Stream size : 3.22 MiB (0%)
Title : TnS
Language : Italian
Default : Yes
Forced : Yes

Menu
00:01:41.101 : :OP
00:01:30.048 : :Episode
00:24:59.957 : :ED
00:26:30.005 : :Preview



General
Unique ID : 203491994414534602703831082130545454319 (0x991721EEB48C04D5B244530918322CEF)
Complete name : [TnS] Chaos Head - 08 [BD 1080p x264 Hi10p FLAC][E57F2C9B].mkv
File size : 1.08 GiB
Duration : 26mn 50s
Overall bit rate mode : Variable
Overall bit rate : 5 771 Kbps
Encoded date : UTC 2016-05-27 18:28:01
Writing application : mkvmerge v9.1.0 ('Little Earthquakes') 64bit
Writing library : libebml v1.3.3 + libmatroska v1.4.4
Attachments : MAGIC.TTF / Rom_Ftl_Srif.TTF / ufonts.com_benoit-bold.ttf / You Are Loved.ttf / a-otf-happynstd-debold.otf / ConferenceD.TTF / CTMercuriusStd-Medium_0.otf / HandVetica.ttf / LT_70895i.ttf

Video
ID : 1
Duration : 26mn 41s
Bit rate : 4 304 Kbps
Bits/(Pixel*Frame) : 0.087
Stream size : 822 MiB (74%)
Title : [TnS] Chaos Head - 08 [BD 1080p x264 Hi10p]
Default : Yes
Forced : No

Audio
ID : 2
Duration : 26mn 41s
Bit rate : 1 475 Kbps
Frame rate : 11.719 fps (4096 spf)
Stream size : 282 MiB (25%)

Text
ID : 3
Format : ASS
Codec ID : S_TEXT/ASS
Codec ID/Info : Advanced Sub Station Alpha
Duration : 26mn 40s
Bit rate : 16.9 Kbps
Count of elements : 13924
Compression mode : Lossless
Stream size : 3.22 MiB (0%)
Title : TnS
Language : Italian
Default : Yes
Forced : Yes

Menu
00:01:41.101 : :OP
00:01:30.048 : :Episode
00:24:59.957 : :ED
00:26:30.005 : :Preview



General
Unique ID : 197152291745968701394921157008816779652 (0x9452267554779CC9B0889D0C30EAB184)
Complete name : [TnS] Chaos Head - 09 [BD 1080p x264 Hi10p FLAC][4C0CD97B].mkv
File size : 1.06 GiB
Duration : 26mn 41s
Overall bit rate mode : Variable
Overall bit rate : 5 660 Kbps
Encoded date : UTC 2016-06-04 16:12:46
Writing application : mkvmerge v9.2.0 ('Photograph') 64bit
Writing library : libebml v1.3.3 + libmatroska v1.4.4
Attachments : CTMercuriusStd-Medium_0.otf / HandVetica.ttf / LT_70895i.ttf / MAGIC.TTF / MAIAN.TTF / Maritime Tropical Neue Double Bold.ttf / Rom_Ftl_Srif.TTF / ufonts.com_benoit-bold.ttf / You Are Loved.ttf / a-otf-happynstd-debold.otf / ConferenceD.TTF / CONSOLAB.TTF

Video
ID : 1
Duration : 26mn 41s
Bit rate : 4 233 Kbps
Bits/(Pixel*Frame) : 0.085
Stream size : 808 MiB (75%)
Title : [TnS] Chaos Head - 09 [BD 1080p x264 Hi10p]
Language : Japanese
Default : Yes
Forced : No

Audio
ID : 2
Duration : 26mn 41s
Bit rate : 1 399 Kbps
Frame rate : 11.719 fps (4096 spf)
Stream size : 267 MiB (25%)

Text
ID : 3
Format : ASS
Codec ID : S_TEXT/ASS
Codec ID/Info : Advanced Sub Station Alpha
Duration : 26mn 28s
Bit rate : 17.1 Kbps
Count of elements : 14149
Compression mode : Lossless
Stream size : 3.24 MiB (0%)
Title : TnS
Language : Italian
Default : Yes
Forced : Yes

Menu
00:01:41.101 : :OP
00:01:30.048 : :Episode
00:24:59.999 : :ED
00:26:30.040 : :Preview



General
Unique ID : 227557581722783813085864832374719302787 (0xAB31FEFE8619F81BA0C992AC0ABACC83)
Complete name : [TnS] Chaos Head - 10 [BD 1080p x264 Hi10p FLAC][53DE4EF3].mkv
File size : 1.02 GiB
Duration : 26mn 41s
Overall bit rate mode : Variable
Overall bit rate : 5 470 Kbps
Encoded date : UTC 2016-06-12 09:47:47
Writing application : mkvmerge v9.2.0 ('Photograph') 64bit
Writing library : libebml v1.3.3 + libmatroska v1.4.4
Attachments : ConferenceD.TTF / CTMercuriusStd-Medium_0.otf / HandVetica.ttf / LT_70895i.ttf / MAGIC.TTF / MAIAN.TTF / Rom_Ftl_Srif.TTF / ufonts.com_benoit-bold.ttf / You Are Loved.ttf / a-otf-happynstd-debold.otf / bellgothicstd-black.otf

Video
ID : 1
Duration : 26mn 41s
Bit rate : 3 997 Kbps
Bits/(Pixel*Frame) : 0.080
Stream size : 763 MiB (73%)
Title : [TnS] Chaos Head - 10 [BD 1080p x264 Hi10p]
Language : Japanese
Default : Yes
Forced : No

Audio
ID : 2
Duration : 26mn 41s
Bit rate : 1 447 Kbps
Frame rate : 11.719 fps (4096 spf)
Stream size : 276 MiB (26%)

Text
ID : 3
Format : ASS
Codec ID : S_TEXT/ASS
Codec ID/Info : Advanced Sub Station Alpha
Duration : 26mn 28s
Bit rate : 17.0 Kbps
Count of elements : 14010
Compression mode : Lossless
Stream size : 3.22 MiB (0%)
Title : TnS
Language : Italian
Default : Yes
Forced : Yes

Menu
00:01:41.101 : :OP
00:01:30.048 : :Episode
00:24:59.999 : :ED
00:26:30.040 : :Preview



General
Unique ID : 207099736195333588014010061423838438399 (0x9BCDF555DB7A7975B292F2E36DCB23FF)
Complete name : [TnS] Chaos Head - 11v2 [BD 1080p x264 Hi10p FLAC][E974D27B].mkv
File size : 1.11 GiB
Duration : 26mn 41s
Overall bit rate mode : Variable
Overall bit rate : 5 960 Kbps
Encoded date : UTC 2016-06-24 17:47:55
Writing application : mkvmerge v9.2.0 ('Photograph') 64bit
Writing library : libebml v1.3.3 + libmatroska v1.4.4
Attachments : CTMercuriusStd-Medium_0.otf / HandVetica.ttf / LT_70895i.ttf / MAGIC.TTF / MAIAN.TTF / Rom_Ftl_Srif.TTF / ufonts.com_benoit-bold.ttf / You Are Loved.ttf / a-otf-happynstd-debold.otf / ctmercuriusstd-medium.otf

Video
ID : 1
Duration : 26mn 41s
Bit rate : 4 440 Kbps
Bits/(Pixel*Frame) : 0.089
Stream size : 848 MiB (74%)
Title : [TnS] Chaos Head - 11 [BD 1080p x264 Hi10p]
Language : Japanese
Default : Yes
Forced : No

Audio
ID : 2
Duration : 26mn 41s
Bit rate : 1 494 Kbps
Frame rate : 11.719 fps (4096 spf)
Stream size : 285 MiB (25%)

Text
ID : 3
Format : ASS
Codec ID : S_TEXT/ASS
Codec ID/Info : Advanced Sub Station Alpha
Duration : 26mn 28s
Bit rate : 17.3 Kbps
Count of elements : 14283
Compression mode : Lossless
Stream size : 3.27 MiB (0%)
Title : TnS
Language : Italian
Default : Yes
Forced : Yes

Menu
00:01:41.101 : :OP
00:01:30.048 : :Episode
00:24:59.999 : :ED
00:26:30.040 : :Preview



General
Unique ID : 234397298369229324042596086678552282703 (0xB057470F9109E83A89004FC0305B864F)
Complete name : [TnS] Chaos Head - 12 [BD 1080p x264 Hi10p FLAC][8CCF7820].mkv
File size : 1.16 GiB
Duration : 26mn 31s
Overall bit rate mode : Variable
Overall bit rate : 6 269 Kbps
Encoded date : UTC 2016-06-25 14:26:41
Writing application : mkvmerge v9.2.0 ('Photograph') 64bit
Writing library : libebml v1.3.3 + libmatroska v1.4.4
Attachments : HandVetica.ttf / LT_70895i.ttf / MAGIC.TTF / Rom_Ftl_Srif.TTF / You Are Loved.ttf / a-otf-happynstd-debold.otf / CTMercuriusStd-Medium_0.otf

Video
ID : 1
Duration : 26mn 31s
Bit rate : 4 701 Kbps
Bits/(Pixel*Frame) : 0.095
Stream size : 892 MiB (75%)
Title : [TnS] Chaos Head - 12 [BD 1080p x264 Hi10p]
Language : Japanese
Default : Yes
Forced : No

Audio
ID : 2
Duration : 26mn 31s
Bit rate : 1 542 Kbps
Frame rate : 11.719 fps (4096 spf)
Stream size : 293 MiB (25%)

Text
ID : 3
Format : ASS
Codec ID : S_TEXT/ASS
Codec ID/Info : Advanced Sub Station Alpha
Duration : 26mn 19s
Bit rate : 17.1 Kbps
Count of elements : 13968
Compression mode : Lossless
Stream size : 3.22 MiB (0%)
Title : TnS
Language : Italian
Default : Yes
Forced : Yes

Menu
00:01:41.101 : :OP
00:01:30.048 : :Episode
00:24:59.999 : :ED

Files in torrent:

[Show files]

User comments:

[Subscribe]

No user comments have been posted.

Post a comment:

You need to be logged in to post a comment.