Anime >> Non-English-translatedFlag torrent
    
Name:[TnS] Dragon Crisis! 01-12 SUB ITA [BD 1080p H.264 FLAC MKV]Date:2016-12-22, 23:02 UTC
Submitter:TanoshimiNoSekaiFansub [Subscribe]Seeders:2
Tracker:http://open.nyaatorrents.info:6544/announceLeechers:0
Information:http://tnsfansub.altervista.org/Downloads:520
Stardom:Only 1 fan.File size:12.39 GiB
Download .txt
Download
Vuze with the Mainline DHT plugin is the recommended client.
Playback help is right here. :3

Torrent description:

Image
Dragon Crisis! 01-12 BD pack by
Tanoshimi no Sekai Fansub

Image



Specs for all videos
Format : Matroska
Format version : Version 4 / Version 2
Overall bit rate mode : Variable
Format : AVC
Format/Info : Advanced Video Codec
Format profile : High@L4.1
Format settings, CABAC : Yes
Format settings, ReFrames : 4 frames
Codec ID : V_MPEG4/ISO/AVC
Width : 1 920 pixels
Height : 1 080 pixels
Display aspect ratio : 16:9
Frame rate mode : Constant
Frame rate : 23.976 (24000/1001) fps
Color space : YUV
Chroma subsampling : 4:2:0
Bit depth : 8 bits
Scan type : Progressive

Specs for all audio tracks
Format : FLAC
Format/Info : Free Lossless Audio Codec
Codec ID : A_FLAC
Bit rate mode : Variable
Channel(s) : 2 channels
Channel positions : Front: L R
Sampling rate : 48.0 KHz
Bit depth : 16 bits
Writing library : libFLAC 1.2.1 (UTC 2007-09-17)
Language : Japanese
Default : Yes
Forced : No


General
Unique ID : 250993475514016721878330970431943757378 (0xBCD395C4C6E1B46AB0AC107D6CC24E42)
Complete name : [TnS] Dragon Crisis! - 01 [BD 1080p x264 FLAC][8E84E6CB].mkv
File size : 1 023 MiB
Duration : 23mn 57s
Overall bit rate : 5 972 Kbps
Encoded date : UTC 2016-04-10 16:39:56
Writing application : mkvmerge v9.0.1 ('Obstacles') 64bit
Writing library : libebml v1.3.3 + libmatroska v1.4.4
Attachments : BlackChancery.ttf / Gentium Basic Bold Italic.ttf / MTCORSVA.TTF / ThrowMyHandsUpintheAirBold.ttf / Woodland.ttf / Anglo Text.ttf / arial.ttf / ARLRDBD.TTF / Asul-Bold.ttf / Asul-Regular.ttf

Video
ID : 1
Duration : 23mn 42s
Bit rate : 5 292 Kbps
Bits/(Pixel*Frame) : 0.106
Stream size : 897 MiB (88%)
Title : [TnS] Dragon Crisis - 01 [BD 1080p x264]
Writing library : x264 core 114 r1913 5fd3dce
Encoding settings : cabac=1 / ref=4 / deblock=1:0:0 / analyse=0x3:0x113 / me=umh / subme=8 / psy=1 / psy_rd=1.00:0.00 / mixed_ref=1 / me_range=16 / chroma_me=1 / trellis=1 / 8x8dct=1 / cqm=0 / deadzone=21,11 / fast_pskip=1 / chroma_qp_offset=-2 / threads=9 / sliced_threads=0 / nr=0 / decimate=1 / interlaced=0 / constrained_intra=0 / bframes=3 / b_pyramid=2 / b_adapt=2 / b_bias=0 / direct=3 / weightb=1 / open_gop=0 / weightp=2 / keyint=250 / keyint_min=23 / scenecut=40 / intra_refresh=0 / rc_lookahead=50 / rc=crf / mbtree=1 / crf=17.0 / qcomp=0.60 / qpmin=0 / qpmax=69 / qpstep=4 / vbv_maxrate=50000 / vbv_bufsize=50000 / crf_max=0.0 / nal_hrd=none / ip_ratio=1.40 / aq=1:1.00
Language : Japanese
Default : No
Forced : No

Audio
ID : 2
Duration : 23mn 42s
Bit rate : 691 Kbps
Frame rate : 11.719 fps (4096 spf)
Stream size : 117 MiB (11%)
Title : FLAC (2 Ch)

Text
ID : 3
Format : ASS
Codec ID : S_TEXT/ASS
Codec ID/Info : Advanced Sub Station Alpha
Duration : 23mn 53s
Bit rate : 37.8 Kbps
Count of elements : 13574
Compression mode : Lossless
Stream size : 6.46 MiB (1%)
Title : TnS
Language : Italian
Default : Yes
Forced : Yes

Menu
00:00:00.000 : en:Prologue
00:01:12.030 : en:OP
00:02:42.120 : en:Part A
00:11:57.091 : en:Part B
00:21:56.106 : en:ED
00:23:26.196 : en:Preview



General
Unique ID : 248800163863599553787110845734534920649 (0xBB2D2B27C0D1F08696B7B891C6DE39C9)
Complete name : [TnS] Dragon Crisis! - 02v2 [BD 1080p x264 FLAC][C0C62C52].mkv
File size : 966 MiB
Duration : 23mn 55s
Overall bit rate : 5 648 Kbps
Encoded date : UTC 2016-04-23 12:18:29
Writing application : mkvmerge v9.0.1 ('Obstacles') 64bit
Writing library : libebml v1.3.3 + libmatroska v1.4.4
Attachments : Gentium Basic Bold Italic.ttf / MTCORSVA.TTF / ThrowMyHandsUpintheAirBold.ttf / Woodland.ttf / Anglo Text.ttf / ARLRDBD.TTF / Asul-Regular.ttf

Video
ID : 1
Duration : 23mn 41s
Bit rate : 4 963 Kbps
Bits/(Pixel*Frame) : 0.100
Stream size : 841 MiB (87%)
Title : [TnS] Dragon Crisis! - 02 [BD 1080p x264]
Writing library : x264 core 114 r1913 5fd3dce
Encoding settings : cabac=1 / ref=4 / deblock=1:0:0 / analyse=0x3:0x113 / me=umh / subme=8 / psy=1 / psy_rd=1.00:0.00 / mixed_ref=1 / me_range=16 / chroma_me=1 / trellis=1 / 8x8dct=1 / cqm=0 / deadzone=21,11 / fast_pskip=1 / chroma_qp_offset=-2 / threads=9 / sliced_threads=0 / nr=0 / decimate=1 / interlaced=0 / constrained_intra=0 / bframes=3 / b_pyramid=2 / b_adapt=2 / b_bias=0 / direct=3 / weightb=1 / open_gop=0 / weightp=2 / keyint=250 / keyint_min=23 / scenecut=40 / intra_refresh=0 / rc_lookahead=50 / rc=crf / mbtree=1 / crf=17.0 / qcomp=0.60 / qpmin=0 / qpmax=69 / qpstep=4 / vbv_maxrate=50000 / vbv_bufsize=50000 / crf_max=0.0 / nal_hrd=none / ip_ratio=1.40 / aq=1:1.00
Language : Japanese
Default : No
Forced : No

Audio
ID : 2
Duration : 23mn 41s
Bit rate : 693 Kbps
Frame rate : 11.719 fps (4096 spf)
Stream size : 117 MiB (12%)
Title : FLAC

Text
ID : 3
Format : ASS
Codec ID : S_TEXT/ASS
Codec ID/Info : Advanced Sub Station Alpha
Duration : 23mn 51s
Bit rate : 37.8 Kbps
Count of elements : 13468
Compression mode : Lossless
Stream size : 6.45 MiB (1%)
Default : Yes
Forced : No

Menu
00:00:00.000 : en:Prologue
00:00:19.895 : en:OP
00:01:49.985 : en:Part A
00:10:14.948 : en:Part B
00:21:54.980 : en:ED
00:23:25.070 : en:Preview



General
Unique ID : 218476913685400858289556098786807663995 (0xA45D1F7E6568D646894CE3CD2BD64D7B)
Complete name : [TnS] Dragon Crisis! - 03 [BD 1080p x264 FLAC][14A7CA2C].mkv
File size : 1.05 GiB
Duration : 23mn 55s
Overall bit rate : 6 306 Kbps
Encoded date : UTC 2016-04-23 19:15:39
Writing application : mkvmerge v9.0.1 ('Obstacles') 64bit
Writing library : libebml v1.3.3 + libmatroska v1.4.4
Attachments : Asul-Regular.ttf / Gentium Basic Bold Italic.ttf / MTCORSVA.TTF / OLDENGL.TTF / Woodland.ttf / Anglo Text.ttf / ARLRDBD.TTF

Video
ID : 2
Duration : 23mn 42s
Bit rate : 5 582 Kbps
Bits/(Pixel*Frame) : 0.112
Stream size : 946 MiB (88%)
Title : [TnS] Dragon Crisis! - 03 [BD 1080p x264]
Writing library : x264 core 114 r1913 5fd3dce
Encoding settings : cabac=1 / ref=4 / deblock=1:0:0 / analyse=0x3:0x113 / me=umh / subme=8 / psy=1 / psy_rd=1.00:0.00 / mixed_ref=1 / me_range=16 / chroma_me=1 / trellis=1 / 8x8dct=1 / cqm=0 / deadzone=21,11 / fast_pskip=1 / chroma_qp_offset=-2 / threads=9 / sliced_threads=0 / nr=0 / decimate=1 / interlaced=0 / constrained_intra=0 / bframes=3 / b_pyramid=2 / b_adapt=2 / b_bias=0 / direct=3 / weightb=1 / open_gop=0 / weightp=2 / keyint=250 / keyint_min=23 / scenecut=40 / intra_refresh=0 / rc_lookahead=50 / rc=crf / mbtree=1 / crf=17.0 / qcomp=0.60 / qpmin=0 / qpmax=69 / qpstep=4 / vbv_maxrate=50000 / vbv_bufsize=50000 / crf_max=0.0 / nal_hrd=none / ip_ratio=1.40 / aq=1:1.00
Language : Japanese
Default : Yes
Forced : No

Audio
ID : 1
Duration : 23mn 42s
Bit rate : 734 Kbps
Frame rate : 11.719 fps (4096 spf)
Stream size : 124 MiB (12%)
Title : FLAC (2 Ch)

Text
ID : 3
Format : ASS
Codec ID : S_TEXT/ASS
Codec ID/Info : Advanced Sub Station Alpha
Duration : 23mn 47s
Bit rate : 37.9 Kbps
Count of elements : 13456
Compression mode : Lossless
Stream size : 6.45 MiB (1%)
Title : TnS
Language : Italian
Default : Yes
Forced : Yes



General
Unique ID : 184845713396417032995508939245372178373 (0x8B0FFD4CBCE9A292A34C94C3E355FFC5)
Complete name : [TnS] Dragon Crisis! - 04 [BD 1080p x264 FLAC][A3E39166].mkv
File size : 1 006 MiB
Duration : 23mn 55s
Overall bit rate : 5 880 Kbps
Encoded date : UTC 2016-05-02 16:17:08
Writing application : mkvmerge v9.1.0 ('Little Earthquakes') 64bit
Writing library : libebml v1.3.3 + libmatroska v1.4.4
Attachments : ARLRDBD.TTF / Asul-Regular.ttf / Gentium Basic Bold Italic.ttf / MTCORSVA.TTF / Woodland.ttf / Anglo Text.ttf / arial.ttf / arialbd_0.ttf / kaiu.ttf

Video
ID : 2
Duration : 23mn 41s
Bit rate : 5 126 Kbps
Bits/(Pixel*Frame) : 0.103
Stream size : 869 MiB (86%)
Title : [TnS] Dragon Crisis! - 04 [BD 1080p x264]
Writing library : x264 core 114 r1913 5fd3dce
Encoding settings : cabac=1 / ref=4 / deblock=1:0:0 / analyse=0x3:0x113 / me=umh / subme=8 / psy=1 / psy_rd=1.00:0.00 / mixed_ref=1 / me_range=16 / chroma_me=1 / trellis=1 / 8x8dct=1 / cqm=0 / deadzone=21,11 / fast_pskip=1 / chroma_qp_offset=-2 / threads=9 / sliced_threads=0 / nr=0 / decimate=1 / interlaced=0 / constrained_intra=0 / bframes=3 / b_pyramid=2 / b_adapt=2 / b_bias=0 / direct=3 / weightb=1 / open_gop=0 / weightp=2 / keyint=250 / keyint_min=23 / scenecut=40 / intra_refresh=0 / rc_lookahead=50 / rc=crf / mbtree=1 / crf=17.0 / qcomp=0.60 / qpmin=0 / qpmax=69 / qpstep=4 / vbv_maxrate=50000 / vbv_bufsize=50000 / crf_max=0.0 / nal_hrd=none / ip_ratio=1.40 / aq=1:1.00
Language : Japanese
Default : No
Forced : No

Audio
ID : 1
Duration : 23mn 41s
Bit rate : 727 Kbps
Frame rate : 11.719 fps (4096 spf)
Stream size : 123 MiB (12%)
Title : FLAC (2 Ch)

Text
ID : 3
Format : ASS
Codec ID : S_TEXT/ASS
Codec ID/Info : Advanced Sub Station Alpha
Duration : 23mn 53s
Bit rate : 37.8 Kbps
Count of elements : 13483
Compression mode : Lossless
Stream size : 6.45 MiB (1%)
Title : TnS
Language : Italian
Default : Yes
Forced : Yes

Menu
00:00:00.000 : en:Part A
00:00:28.045 : en:OP
00:01:58.025 : en:Part B
00:10:16.743 : en:Part C
00:21:54.939 : en:ED
00:23:24.900 : en:Preview



General
Unique ID : 198174266865038253475248186326385657184 (0x9516F9B8CF85849781514DAF06FF8560)
Complete name : [TnS] Dragon Crisis! - 05 [BD 1080p x264 FLAC][394C1B88].mkv
File size : 972 MiB
Duration : 23mn 55s
Overall bit rate : 5 683 Kbps
Encoded date : UTC 2016-05-06 13:35:10
Writing application : mkvmerge v9.1.0 ('Little Earthquakes') 64bit
Writing library : libebml v1.3.3 + libmatroska v1.4.4
Attachments : MTCORSVA.TTF / ThrowMyHandsUpintheAirBold.ttf / Vesta-Bold.otf / Woodland.ttf / Anglo Text.ttf / ARLRDBD.TTF / Asul-Regular.ttf / BlackChancery.ttf / Gentium Basic Bold Italic.ttf

Video
ID : 1
Duration : 23mn 42s
Bit rate : 4 969 Kbps
Bits/(Pixel*Frame) : 0.100
Stream size : 842 MiB (87%)
Title : [TnS] Dragon Crisis! - 05 [BD 1080p x264]
Writing library : x264 core 114 r1924 08d04a4
Encoding settings : cabac=1 / ref=4 / deblock=1:0:0 / analyse=0x3:0x133 / me=umh / subme=9 / psy=1 / psy_rd=1.00:0.00 / mixed_ref=1 / me_range=16 / chroma_me=1 / trellis=2 / 8x8dct=1 / cqm=0 / deadzone=21,11 / fast_pskip=1 / chroma_qp_offset=-2 / threads=9 / sliced_threads=0 / nr=0 / decimate=1 / interlaced=0 / constrained_intra=0 / bframes=3 / b_pyramid=2 / b_adapt=2 / b_bias=0 / direct=3 / weightb=1 / open_gop=0 / weightp=2 / keyint=250 / keyint_min=23 / scenecut=40 / intra_refresh=0 / rc_lookahead=60 / rc=crf / mbtree=1 / crf=17.0 / qcomp=0.60 / qpmin=0 / qpmax=69 / qpstep=4 / vbv_maxrate=50000 / vbv_bufsize=50000 / crf_max=0.0 / nal_hrd=none / ip_ratio=1.40 / aq=1:1.00
Language : Japanese
Default : No
Forced : No

Audio
ID : 2
Duration : 23mn 42s
Bit rate : 718 Kbps
Frame rate : 11.719 fps (4096 spf)
Stream size : 122 MiB (13%)
Title : FLAC (2 Ch)

Text
ID : 3
Format : ASS
Codec ID : S_TEXT/ASS
Codec ID/Info : Advanced Sub Station Alpha
Duration : 23mn 48s
Bit rate : 37.9 Kbps
Count of elements : 13482
Compression mode : Lossless
Stream size : 6.46 MiB (1%)
Title : TnS
Language : Italian
Default : Yes
Forced : Yes

Menu
00:00:00.000 : en:Prologue
00:00:49.383 : en:OP
00:02:19.139 : en:Part A
00:10:41.099 : en:Part B
00:21:56.190 : en:ED
00:23:26.196 : en:Preview



General
Unique ID : 188026598957719722468459707309091447039 (0x8D749B10F35D1332A48C10E4841BE0FF)
Complete name : [TnS] Dragon Crisis! - 06 [BD 1080p x264 FLAC][52F89074].mkv
File size : 898 MiB
Duration : 23mn 55s
Overall bit rate : 5 247 Kbps
Encoded date : UTC 2016-05-12 08:26:00
Writing application : mkvmerge v9.1.0 ('Little Earthquakes') 64bit
Writing library : libebml v1.3.3 + libmatroska v1.4.4
Attachments : Asul-Regular.ttf / Gentium Basic Bold Italic.ttf / MTCORSVA.TTF / Woodland.ttf / Anglo Text.ttf / ARLRDBD.TTF

Video
ID : 1
Duration : 23mn 40s
Bit rate : 4 598 Kbps
Bits/(Pixel*Frame) : 0.092
Stream size : 778 MiB (87%)
Title : [TnS] Dragon Crisis! - 06 [BD 1080p x264]
Writing library : x264 core 114 r1924 08d04a4
Encoding settings : cabac=1 / ref=4 / deblock=1:0:0 / analyse=0x3:0x133 / me=umh / subme=9 / psy=1 / psy_rd=1.00:0.00 / mixed_ref=1 / me_range=24 / chroma_me=1 / trellis=2 / 8x8dct=1 / cqm=0 / deadzone=21,11 / fast_pskip=1 / chroma_qp_offset=-2 / threads=6 / sliced_threads=0 / nr=0 / decimate=1 / interlaced=0 / constrained_intra=0 / bframes=3 / b_pyramid=2 / b_adapt=2 / b_bias=0 / direct=3 / weightb=1 / open_gop=0 / weightp=2 / keyint=250 / keyint_min=23 / scenecut=40 / intra_refresh=0 / rc_lookahead=60 / rc=crf / mbtree=1 / crf=17.0 / qcomp=0.60 / qpmin=0 / qpmax=69 / qpstep=4 / vbv_maxrate=50000 / vbv_bufsize=50000 / crf_max=0.0 / nal_hrd=none / ip_ratio=1.40 / aq=1:1.00
Language : Japanese
Default : No
Forced : No

Audio
ID : 2
Duration : 23mn 40s
Bit rate : 659 Kbps
Frame rate : 11.719 fps (4096 spf)
Stream size : 112 MiB (12%)
Title : FLAC (2 Ch)

Text
ID : 3
Format : ASS
Codec ID : S_TEXT/ASS
Codec ID/Info : Advanced Sub Station Alpha
Duration : 23mn 36s
Bit rate : 38.2 Kbps
Count of elements : 13470
Compression mode : Lossless
Stream size : 6.45 MiB (1%)
Title : TnS
Language : Italian
Default : Yes
Forced : Yes

Menu
00:00:00.000 : en:PROLOGUE
00:00:18.185 : en:OP
00:01:47.941 : en:Part A
00:10:03.895 : en:Part B
00:21:55.022 : en:ED
00:23:25.029 : en:Preview



General
Unique ID : 247259189811525530952139775094747433435 (0xBA046344C86F0736B7AB82380EFE09DB)
Complete name : [TnS] Dragon Crisis! - 07 [BD 1080p x264 FLAC][AF0ED752].mkv
File size : 981 MiB
Duration : 23mn 55s
Overall bit rate : 5 733 Kbps
Encoded date : UTC 2016-05-18 22:33:03
Writing application : mkvmerge v9.1.0 ('Little Earthquakes') 64bit
Writing library : libebml v1.3.3 + libmatroska v1.4.4
Attachments : Asul-Regular.ttf / Gentium Basic Bold Italic.ttf / MTCORSVA.TTF / Woodland.ttf / Anglo Text.ttf / ARLRDBD.TTF

Video
ID : 1
Duration : 23mn 41s
Bit rate : 5 076 Kbps
Bits/(Pixel*Frame) : 0.102
Stream size : 860 MiB (88%)
Title : [TnS] Dragon Crisis! - 07 [BD 1080p x264]
Writing library : x264 core 114 r1924 08d04a4
Encoding settings : cabac=1 / ref=4 / deblock=1:0:0 / analyse=0x3:0x133 / me=umh / subme=9 / psy=1 / psy_rd=1.00:0.00 / mixed_ref=1 / me_range=24 / chroma_me=1 / trellis=2 / 8x8dct=1 / cqm=0 / deadzone=21,11 / fast_pskip=1 / chroma_qp_offset=-2 / threads=6 / sliced_threads=0 / nr=0 / decimate=1 / interlaced=0 / constrained_intra=0 / bframes=3 / b_pyramid=2 / b_adapt=2 / b_bias=0 / direct=3 / weightb=1 / open_gop=0 / weightp=2 / keyint=250 / keyint_min=23 / scenecut=40 / intra_refresh=0 / rc_lookahead=60 / rc=crf / mbtree=1 / crf=17.0 / qcomp=0.60 / qpmin=0 / qpmax=69 / qpstep=4 / vbv_maxrate=50000 / vbv_bufsize=50000 / crf_max=0.0 / nal_hrd=none / ip_ratio=1.40 / aq=1:1.00
Language : Japanese
Default : No
Forced : No

Audio
ID : 2
Duration : 23mn 41s
Bit rate : 664 Kbps
Frame rate : 11.719 fps (4096 spf)
Stream size : 113 MiB (11%)
Title : FLAC (2Ch)

Text
ID : 3
Format : ASS
Codec ID : S_TEXT/ASS
Codec ID/Info : Advanced Sub Station Alpha
Duration : 23mn 39s
Bit rate : 38.1 Kbps
Count of elements : 13469
Compression mode : Lossless
Stream size : 6.45 MiB (1%)
Title : TnS
Language : Italian
Default : Yes
Forced : Yes

Menu
00:00:00.000 : en:Prologue
00:00:27.361 : en:OP
00:01:57.117 : en:Part A
00:09:46.586 : en:Part B
00:21:55.648 : en:ED
00:23:25.600 : en:Preview



General
Unique ID : 196165852290024865238735534392387413128 (0x93942B3CF9B183C3ACD4E9D1C3EDA488)
Complete name : [TnS] Dragon Crisis! - 08 [BD 1080p x264 FLAC][A2FCD351].mkv
File size : 1.01 GiB
Duration : 25mn 13s
Overall bit rate : 5 728 Kbps
Encoded date : UTC 2016-05-25 18:53:35
Writing application : mkvmerge v9.1.0 ('Little Earthquakes') 64bit
Writing library : libebml v1.3.3 + libmatroska v1.4.4
Attachments : Asul-Regular.ttf / Gentium Basic Bold Italic.ttf / HANDWRITTEN_CRYSTAL_V2.TTF / LT_70895i.ttf / MTCORSVA.TTF / verdanab.ttf / Woodland.ttf / Anglo Text.ttf / arial.ttf / arialbd_0.ttf / ARLRDBD.TTF / ARTIS.TTF

Video
ID : 1
Duration : 23mn 40s
Bit rate : 5 305 Kbps
Bits/(Pixel*Frame) : 0.107
Stream size : 898 MiB (87%)
Title : [TnS] Dragon Crisis! - 08 [BD 1080p x264]
Writing library : x264 core 114 r1924 08d04a4
Encoding settings : cabac=1 / ref=4 / deblock=1:0:0 / analyse=0x3:0x133 / me=umh / subme=9 / psy=1 / psy_rd=1.00:0.00 / mixed_ref=1 / me_range=24 / chroma_me=1 / trellis=2 / 8x8dct=1 / cqm=0 / deadzone=21,11 / fast_pskip=1 / chroma_qp_offset=-2 / threads=6 / sliced_threads=0 / nr=0 / decimate=1 / interlaced=0 / constrained_intra=0 / bframes=3 / b_pyramid=2 / b_adapt=2 / b_bias=0 / direct=3 / weightb=1 / open_gop=0 / weightp=2 / keyint=250 / keyint_min=23 / scenecut=40 / intra_refresh=0 / rc_lookahead=60 / rc=crf / mbtree=1 / crf=17.0 / qcomp=0.60 / qpmin=0 / qpmax=69 / qpstep=4 / vbv_maxrate=50000 / vbv_bufsize=50000 / crf_max=0.0 / nal_hrd=none / ip_ratio=1.40 / aq=1:1.00
Language : Japanese
Default : No
Forced : No

Audio
ID : 2
Duration : 23mn 42s
Bit rate : 740 Kbps
Frame rate : 11.719 fps (4096 spf)
Stream size : 125 MiB (12%)
Title : FLAC (2Ch)

Text
ID : 3
Format : ASS
Codec ID : S_TEXT/ASS
Codec ID/Info : Advanced Sub Station Alpha
Duration : 24mn 46s
Bit rate : 36.4 Kbps
Count of elements : 13456
Compression mode : Lossless
Stream size : 6.46 MiB (1%)
Title : TnS
Language : Italian
Default : Yes
Forced : Yes

Menu
00:00:00.000 : en:Prologue
00:01:45.188 : en:OP
00:03:14.945 : en:Part A
00:10:03.937 : en:Part B
00:21:55.022 : en:ED
00:23:25.028 : en:Preview



General
Unique ID : 210751792332044785353602260423607023797 (0x9E8D519AD0ED4954B199942418E378B5)
Complete name : [TnS] Dragon Crisis! - 09 [BD 1080p x264 FLAC][BAE9B043].mkv
File size : 928 MiB
Duration : 23mn 42s
Overall bit rate : 5 473 Kbps
Encoded date : UTC 2016-06-03 16:03:42
Writing application : mkvmerge v9.2.0 ('Photograph') 64bit
Writing library : libebml v1.3.3 + libmatroska v1.4.4
Attachments : Gentium Basic Bold Italic.ttf / MAIAN.TTF / MTCORSVA.TTF / Woodland.ttf / Anglo Text.ttf / ARLRDBD.TTF / Asul-Regular.ttf

Video
ID : 1
Duration : 23mn 41s
Bit rate : 4 805 Kbps
Bits/(Pixel*Frame) : 0.097
Stream size : 814 MiB (88%)
Title : [TnS] Dragon Crisis! - 09 [BD 1080p x264]
Writing library : x264 core 115 r1995 c1e60b9
Encoding settings : cabac=1 / ref=4 / deblock=1:0:0 / analyse=0x3:0x133 / me=umh / subme=9 / psy=1 / psy_rd=1.00:0.00 / mixed_ref=1 / me_range=16 / chroma_me=1 / trellis=2 / 8x8dct=1 / cqm=0 / deadzone=21,11 / fast_pskip=1 / chroma_qp_offset=-2 / threads=9 / sliced_threads=0 / nr=0 / decimate=1 / interlaced=0 / bluray_compat=0 / constrained_intra=0 / bframes=3 / b_pyramid=2 / b_adapt=2 / b_bias=0 / direct=3 / weightb=1 / open_gop=0 / weightp=2 / keyint=250 / keyint_min=23 / scenecut=40 / intra_refresh=0 / rc_lookahead=60 / rc=crf / mbtree=1 / crf=17.0 / qcomp=0.60 / qpmin=0 / qpmax=69 / qpstep=4 / vbv_maxrate=50000 / vbv_bufsize=50000 / crf_max=0.0 / nal_hrd=none / ip_ratio=1.40 / aq=1:1.00
Language : Japanese
Default : Yes
Forced : No

Audio
ID : 2
Duration : 23mn 41s
Bit rate : 624 Kbps
Frame rate : 11.719 fps (4096 spf)
Stream size : 106 MiB (11%)
Title : FLAC (2Ch)

Text
ID : 3
Format : ASS
Codec ID : S_TEXT/ASS
Codec ID/Info : Advanced Sub Station Alpha
Duration : 23mn 42s
Bit rate : 38.1 Kbps
Count of elements : 13409
Compression mode : Lossless
Stream size : 6.45 MiB (1%)
Title : TnS
Language : Italian
Default : Yes
Forced : Yes

Menu
00:00:00.000 : en:Prologue
00:02:14.343 : en:OP
00:03:44.098 : en:Part A
00:10:56.072 : en:Part B
00:21:56.190 : en:ED
00:23:26.196 : en:Preview



General
Unique ID : 247399011086168434556039106174722273564 (0xBA1F50FD6126171DBE9B7CFD2548711C)
Complete name : [TnS] Dragon Crisis! - 10 [BD 1080p x264 FLAC][59F0263F].mkv
File size : 884 MiB
Duration : 23mn 40s
Overall bit rate : 5 223 Kbps
Encoded date : UTC 2016-06-09 19:17:08
Writing application : mkvmerge v9.2.0 ('Photograph') 64bit
Writing library : libebml v1.3.3 + libmatroska v1.4.4
Attachments : Anglo Text.ttf / ARLRDBD.TTF / Asul-Regular.ttf / Gentium Basic Bold Italic.ttf / MTCORSVA.TTF / Woodland.ttf

Video
ID : 1
Duration : 23mn 40s
Bit rate : 4 524 Kbps
Bits/(Pixel*Frame) : 0.091
Stream size : 766 MiB (87%)
Title : [TnS] Dragon Crisis! - 10 [BD 1080p x264]
Writing library : x264 core 115 r1995 c1e60b9
Encoding settings : cabac=1 / ref=4 / deblock=1:0:0 / analyse=0x3:0x133 / me=umh / subme=9 / psy=1 / psy_rd=1.00:0.00 / mixed_ref=1 / me_range=16 / chroma_me=1 / trellis=2 / 8x8dct=1 / cqm=0 / deadzone=21,11 / fast_pskip=1 / chroma_qp_offset=-2 / threads=9 / sliced_threads=0 / nr=0 / decimate=1 / interlaced=0 / bluray_compat=0 / constrained_intra=0 / bframes=3 / b_pyramid=2 / b_adapt=2 / b_bias=0 / direct=3 / weightb=1 / open_gop=0 / weightp=2 / keyint=250 / keyint_min=23 / scenecut=40 / intra_refresh=0 / rc_lookahead=60 / rc=crf / mbtree=1 / crf=17.0 / qcomp=0.60 / qpmin=0 / qpmax=69 / qpstep=4 / vbv_maxrate=50000 / vbv_bufsize=50000 / crf_max=0.0 / nal_hrd=none / ip_ratio=1.40 / aq=1:1.00
Language : Japanese
Default : Yes
Forced : No

Audio
ID : 2
Duration : 23mn 40s
Bit rate : 652 Kbps
Frame rate : 11.719 fps (4096 spf)
Stream size : 110 MiB (12%)
Title : FLAC

Text
ID : 3
Format : ASS
Codec ID : S_TEXT/ASS
Codec ID/Info : Advanced Sub Station Alpha
Duration : 23mn 40s
Bit rate : 38.1 Kbps
Count of elements : 13489
Compression mode : Lossless
Stream size : 6.46 MiB (1%)
Title : TnS
Language : Italian
Default : Yes
Forced : Yes

Menu
00:00:00.000 : en:Prologue
00:01:23.333 : en:OP
00:02:53.048 : en:Part A
00:11:58.009 : en:Part B
00:21:55.147 : en:ED
00:23:25.112 : en:Preview



General
Unique ID : 247211878381260136583472382884047421665 (0xB9FB46A2946356E3B626190DB75B00E1)
Complete name : [TnS] Dragon Crisis! - 11 [BD 1080p x264 FLAC][912F2AB5].mkv
File size : 909 MiB
Duration : 23mn 41s
Overall bit rate : 5 363 Kbps
Encoded date : UTC 2016-06-18 11:17:02
Writing application : mkvmerge v9.2.0 ('Photograph') 64bit
Writing library : libebml v1.3.3 + libmatroska v1.4.4
Attachments : Asul-Regular.ttf / AVGARDNEclipse.ttf / Gentium Basic Bold Italic.ttf / MTCORSVA.TTF / Woodland.ttf / Anglo Text.ttf / ARLRDBD.TTF

Video
ID : 1
Duration : 23mn 41s
Bit rate : 4 652 Kbps
Bits/(Pixel*Frame) : 0.094
Stream size : 788 MiB (87%)
Title : [TnS] Dragon Crisis! - 11 [BD 1080p x264]
Writing library : x264 core 115 r1995 c1e60b9
Encoding settings : cabac=1 / ref=4 / deblock=1:0:0 / analyse=0x3:0x133 / me=umh / subme=9 / psy=1 / psy_rd=1.00:0.00 / mixed_ref=1 / me_range=16 / chroma_me=1 / trellis=2 / 8x8dct=1 / cqm=0 / deadzone=21,11 / fast_pskip=1 / chroma_qp_offset=-2 / threads=9 / sliced_threads=0 / nr=0 / decimate=1 / interlaced=0 / bluray_compat=0 / constrained_intra=0 / bframes=3 / b_pyramid=2 / b_adapt=2 / b_bias=0 / direct=3 / weightb=1 / open_gop=0 / weightp=2 / keyint=250 / keyint_min=23 / scenecut=40 / intra_refresh=0 / rc_lookahead=60 / rc=crf / mbtree=1 / crf=17.0 / qcomp=0.60 / qpmin=0 / qpmax=69 / qpstep=4 / vbv_maxrate=50000 / vbv_bufsize=50000 / crf_max=0.0 / nal_hrd=none / ip_ratio=1.40 / aq=1:1.00
Language : Japanese
Default : Yes
Forced : No

Audio
ID : 2
Duration : 23mn 41s
Bit rate : 665 Kbps
Frame rate : 11.719 fps (4096 spf)
Stream size : 113 MiB (12%)
Title : FLAC (2Ch)

Text
ID : 3
Format : ASS
Codec ID : S_TEXT/ASS
Codec ID/Info : Advanced Sub Station Alpha
Duration : 23mn 41s
Bit rate : 38.1 Kbps
Count of elements : 13457
Compression mode : Lossless
Stream size : 6.45 MiB (1%)
Title : TnS
Language : Italian
Default : Yes
Forced : Yes

Menu
00:00:00.000 : en:Prologue
00:00:23.398 : en:OP
00:01:53.113 : en:Part A
00:10:14.072 : en:Part B
00:21:56.232 : en:ED
00:23:26.196 : en:Preview



General
Unique ID : 209749447550310488325203311088122645754 (0x9DCC463106BCFAD4A48CD0928B66CCFA)
Complete name : [TnS] Dragon Crisis! - 12 [BD 1080p x264 FLAC][86084DF9].mkv
File size : 928 MiB
Duration : 23mn 26s
Overall bit rate : 5 536 Kbps
Encoded date : UTC 2016-06-23 12:54:06
Writing application : mkvmerge v9.2.0 ('Photograph') 64bit
Writing library : libebml v1.3.3 + libmatroska v1.4.4
Attachments : Asul-Regular.ttf / Gentium Basic Bold Italic.ttf / HANDWRITTEN_CRYSTAL_V2.TTF / MTCORSVA.TTF / Throw My Hands Up in the Air.ttf / Woodland.ttf / Anglo Text.ttf / ARLRDBD.TTF / ARTIS_1.TTF

Video
ID : 1
Duration : 23mn 25s
Bit rate : 4 803 Kbps
Bits/(Pixel*Frame) : 0.097
Stream size : 805 MiB (87%)
Title : [TnS] Dragon Crisis! - 12 [BD 1080p x264]
Writing library : x264 core 115 r1995 c1e60b9
Encoding settings : cabac=1 / ref=4 / deblock=1:0:0 / analyse=0x3:0x133 / me=umh / subme=9 / psy=1 / psy_rd=1.00:0.00 / mixed_ref=1 / me_range=16 / chroma_me=1 / trellis=2 / 8x8dct=1 / cqm=0 / deadzone=21,11 / fast_pskip=1 / chroma_qp_offset=-2 / threads=9 / sliced_threads=0 / nr=0 / decimate=1 / interlaced=0 / bluray_compat=0 / constrained_intra=0 / bframes=3 / b_pyramid=2 / b_adapt=2 / b_bias=0 / direct=3 / weightb=1 / open_gop=0 / weightp=2 / keyint=250 / keyint_min=23 / scenecut=40 / intra_refresh=0 / rc_lookahead=60 / rc=crf / mbtree=1 / crf=17.0 / qcomp=0.60 / qpmin=0 / qpmax=69 / qpstep=4 / vbv_maxrate=50000 / vbv_bufsize=50000 / crf_max=0.0 / nal_hrd=none / ip_ratio=1.40 / aq=1:1.00
Language : Japanese
Default : Yes
Forced : No

Audio
ID : 2
Duration : 23mn 26s
Bit rate : 690 Kbps
Frame rate : 11.719 fps (4096 spf)
Stream size : 116 MiB (12%)
Title : FLAC (2Ch)

Text
ID : 3
Format : ASS
Codec ID : S_TEXT/ASS
Codec ID/Info : Advanced Sub Station Alpha
Duration : 23mn 17s
Bit rate : 38.7 Kbps
Count of elements : 13421
Compression mode : Lossless
Stream size : 6.45 MiB (1%)
Title : TnS
Language : Italian
Default : Yes
Forced : Yes

Menu
00:00:00.000 : en:Prologue
00:00:49.383 : en:OP
00:02:19.097 : en:Part A
00:09:22.062 : en:Part B
00:21:55.189 : en:ED

Files in torrent:

[Show files]

User comments:

[Subscribe]

No user comments have been posted.

Post a comment:

You need to be logged in to post a comment.