Anime >> Non-English-translatedFlag torrent
    
Name:[TnS] Hoshizora e Kakaru Hashi 01-12 + OVA SUB ITA [BD 1080p H.264 Hi10p FLAC MKV]Date:2016-12-24, 10:57 UTC
Submitter:TanoshimiNoSekaiFansub [Subscribe]Seeders:4
Tracker:http://open.nyaatorrents.info:6544/announceLeechers:1
Information:http://tnsfansub.altervista.org/Downloads:558
Stardom:Only 1 fan.File size:13.31 GiB
Download .txt
Download
Vuze with the Mainline DHT plugin is the recommended client.
Playback help is right here. :3

Torrent description:

Image
Hoshizora e Kakaru Hashi 01-12 + OVA BD pack by
Tanoshimi no Sekai Fansub

Image





Specs for all videos
Format : Matroska
Format version : Version 4 / Version 2
Overall bit rate mode : Variable
Writing library : libebml v1.3.4 + libmatroska v1.4.5
Format : AVC
Format/Info : Advanced Video Codec
Format profile : High 10@L5.2
Format settings, CABAC : Yes
Format settings, ReFrames : 16 frames
Codec ID : V_MPEG4/ISO/AVC
Width : 1 920 pixels
Height : 1 080 pixels
Display aspect ratio : 16:9
Frame rate mode : Constant
Color space : YUV
Chroma subsampling : 4:2:0
Bit depth : 10 bits
Scan type : Progressive
Writing library : x264 core 142 r2431+42 c69a006 tMod [10-bit@all X86_64]
Encoding settings : cabac=1 / ref=16 / deblock=1:-2:-2 / analyse=0x3:0x133 / me=umh / subme=11 / psy=1 / fade_compensate=0.50 / psy_rd=0.88:0.00 / mixed_ref=1 / me_range=24 / chroma_me=1 / trellis=2 / 8x8dct=1 / cqm=0 / deadzone=21,11 / fast_pskip=0 / chroma_qp_offset=-2 / threads=12 / lookahead_threads=3 / sliced_threads=0 / nr=0 / decimate=1 / interlaced=0 / bluray_compat=0 / constrained_intra=0 / fgo=0 / bframes=16 / b_pyramid=2 / b_adapt=2 / b_bias=0 / direct=3 / weightb=1 / open_gop=0 / weightp=2 / keyint=400 / keyint_min=23 / scenecut=40 / intra_refresh=0 / rc_lookahead=80 / rc=crf / mbtree=1 / crf=15.3500 / qcomp=0.60 / qpmin=0:0:0 / qpmax=81:81:81 / qpstep=4 / ip_ratio=1.40 / aq=3:0.95 / aq-sensitivity=10.00 / aq-factor=1.00:1.00:1.00 / aq2=0 / aq3=0
Color range : Limited
Color primaries : BT.709
Transfer characteristics : BT.709
Matrix coefficients : BT.709

Specs for all audio tracks
Format : FLAC
Format/Info : Free Lossless Audio Codec
Codec ID : A_FLAC
Bit rate mode : Variable
Channel(s) : 2 channels
Channel positions : Front: L R
Sampling rate : 48.0 KHz
Bit depth : 24 bits
Writing library : libFLAC 1.3.1 (UTC 2014-11-25)
Language : Japanese
Default : Yes
Forced : No


General
Unique ID : 194410429520363459833931591478047666180 (0x92421636A74776028A68D8391513F004)
Complete name : [TnS] Hoshizora e Kakaru Hashi - 01 [BD 1080p x264 Hi10p FLAC][38C753EF].mkv
File size : 1.10 GiB
Duration : 24mn 25s
Overall bit rate : 6 449 Kbps
Encoded date : UTC 2016-12-12 21:53:11
Writing application : mkvmerge v9.6.0 ('Slave To Your Mind') 64bit
Attachments : cronos13b.ttf / International.ttf / SubwayNovellaDEMO.ttf / SweetAsCandy.ttf / ARCENA.ttf / Arista2.0.ttf / AVGARDNEclipse.ttf / CasualMarkerMF.ttf / Chinacat.ttf / capitoli.xml / cronos13b.ttf / International.ttf / SubwayNovellaDEMO.ttf / SweetAsCandy.ttf / ARCENA.ttf / Arista2.0.ttf / AVGARDNEclipse.ttf / CasualMarkerMF.ttf / Chinacat.ttf / capitoli.xml

Video
ID : 1
Duration : 24mn 25s
Bit rate : 5 009 Kbps
Frame rate : 23.976 (24000/1001) fps
Bits/(Pixel*Frame) : 0.101
Stream size : 875 MiB (78%)
Title : [TnS] Hoshizora e Kakaru Hashi - 01 [BD 1080p x264 Hi10p]
Language : Japanese
Default : Yes
Forced : No

Audio
ID : 2
Duration : 24mn 25s
Bit rate : 1 413 Kbps
Frame rate : 11.719 fps (4096 spf)
Stream size : 247 MiB (22%)
Title : FLAC

Text
ID : 3
Format : ASS
Codec ID : S_TEXT/ASS
Codec ID/Info : Advanced Sub Station Alpha
Duration : 24mn 9s
Bit rate : 9 208 bps
Count of elements : 8447
Compression mode : Lossless
Stream size : 1.59 MiB (0%)
Title : TnS
Language : Italian
Default : Yes
Forced : Yes

Menu
00:00:00.000 : :Prologo
00:01:08.960 : :Opening
00:02:39.010 : :Parte A
00:10:15.010 : :Inserto
00:10:21.010 : :Parte B
00:22:25.030 : :Ending
00:23:54.990 : :Anteprima



General
Unique ID : 255175134821984534402021942532308316977 (0xBFF8F17D876E96F7AE217F93887DB331)
Complete name : [TnS] Hoshizora e Kakaru Hashi - 02 [BD 1080p x264 Hi10p FLAC][991C8F78].mkv
File size : 1.04 GiB
Duration : 24mn 25s
Overall bit rate : 6 118 Kbps
Encoded date : UTC 2016-12-12 23:00:10
Writing application : mkvmerge v9.6.0 ('Slave To Your Mind') 64bit
Attachments : edosz.ttf / Hirav8-W8.ttf / pastel crayon.ttf / SweetAsCandy.ttf / ufonts.com_accolade-regular.ttf / ARCENA.ttf / Arial Rounded MT.ttf / Arista2.0.ttf / BradBunR.ttf / CasualMarkerMF.ttf / Chinacat.ttf / cronos13b.ttf

Video
ID : 1
Duration : 24mn 25s
Bit rate : 4 664 Kbps
Frame rate : 23.976 (24000/1001) fps
Bits/(Pixel*Frame) : 0.094
Stream size : 815 MiB (76%)
Title : [TnS] Hoshizora e Kakaru Hashi - 02 [BD 1080p x264 Hi10p]
Language : Japanese
Default : Yes
Forced : No

Audio
ID : 2
Duration : 24mn 25s
Bit rate : 1 433 Kbps
Frame rate : 11.719 fps (4096 spf)
Stream size : 250 MiB (23%)
Title : FLAC

Text
ID : 3
Format : ASS
Codec ID : S_TEXT/ASS
Codec ID/Info : Advanced Sub Station Alpha
Duration : 24mn 15s
Bit rate : 9 705 bps
Count of elements : 9023
Compression mode : Lossless
Stream size : 1.68 MiB (0%)
Title : TnS
Language : Italian
Default : Yes
Forced : Yes

Menu
00:00:00.000 : :Prologo
00:00:51.030 : :Opening
00:02:21.070 : :Parte A
00:10:05.080 : :Inserto
00:10:11.090 : :Parte B
00:22:25.110 : :Ending
00:23:55.080 : :Anteprima



General
Unique ID : 241926488247263693606094228677209957193 (0xB60158C840366EC49E50800FB5992349)
Complete name : [TnS] Hoshizora e Kakaru Hashi - 03 [BD 1080p x264 Hi10p FLAC][57E49C44].mkv
File size : 1.05 GiB
Duration : 24mn 25s
Overall bit rate : 6 142 Kbps
Encoded date : UTC 2016-12-12 23:11:24
Writing application : mkvmerge v9.6.0 ('Slave To Your Mind') 64bit
Attachments : Chinacat.ttf / cronos13b.ttf / hardcore_pen_regular.ttf / International.ttf / JapanSans90 Regular.otf / Mixage_Bold_BT.ttf / SweetAsCandy.ttf / ARCENA.ttf / Arista2.0.ttf / AVGARDNEclipse.ttf / CasualMarkerMF.ttf

Video
ID : 1
Duration : 24mn 25s
Bit rate : 4 665 Kbps
Frame rate : 23.976 (24000/1001) fps
Bits/(Pixel*Frame) : 0.094
Stream size : 815 MiB (76%)
Title : [TnS] Hoshizora e Kakaru Hashi - 03 [BD 1080p x264 Hi10p]
Language : Japanese
Default : Yes
Forced : No

Audio
ID : 2
Duration : 24mn 25s
Bit rate : 1 444 Kbps
Frame rate : 11.719 fps (4096 spf)
Stream size : 252 MiB (24%)
Title : FLAC

Text
ID : 3
Format : ASS
Codec ID : S_TEXT/ASS
Codec ID/Info : Advanced Sub Station Alpha
Duration : 24mn 13s
Bit rate : 9 628 bps
Count of elements : 8873
Compression mode : Lossless
Stream size : 1.67 MiB (0%)
Title : TnS
Language : Italian
Default : Yes
Forced : Yes

Menu
00:00:00.000 : :Prologo
00:00:40.010 : :Opening
00:02:09.980 : :Parte A
00:09:06.020 : :Inserto
00:09:12.030 : :Parte B
00:22:25.030 : :Ending
00:23:54.990 : :Anteprima



General
Unique ID : 193016189371320631348947064949192822681 (0x913590DDEA94308398CE986BB42C8F99)
Complete name : [TnS] Hoshizora e Kakaru Hashi - 04 [BD 1080p x264 Hi10p FLAC][029D4454].mkv
File size : 889 MiB
Duration : 24mn 25s
Overall bit rate : 5 088 Kbps
Encoded date : UTC 2016-12-12 23:15:57
Writing application : mkvmerge v9.6.0 ('Slave To Your Mind') 64bit
Attachments : cambriab.ttf / CasualMarkerMF.ttf / Chanor_Sans_Book_Bold_by_xlphs.otf / Chinacat.ttf / cronos13b.ttf / SweetAsCandy.ttf / times_1.ttf / alr___ub.ttf / ARCENA.ttf / Arista2.0.ttf / Arista2.0-RegularTrial.ttf

Video
ID : 1
Duration : 24mn 25s
Bit rate : 3 640 Kbps
Frame rate : 23.976 (24000/1001) fps
Bits/(Pixel*Frame) : 0.073
Stream size : 636 MiB (72%)
Title : [TnS] Hoshizora e Kakaru Hashi - 04 [BD 1080p x264 Hi10p]
Language : Japanese
Default : Yes
Forced : No

Audio
ID : 2
Duration : 24mn 25s
Bit rate : 1 423 Kbps
Frame rate : 11.719 fps (4096 spf)
Stream size : 249 MiB (28%)
Title : FLAC

Text
ID : 3
Format : ASS
Codec ID : S_TEXT/ASS
Codec ID/Info : Advanced Sub Station Alpha
Duration : 24mn 18s
Bit rate : 9 938 bps
Count of elements : 9338
Compression mode : Lossless
Stream size : 1.73 MiB (0%)
Title : TnS
Language : Italian
Default : Yes
Forced : Yes

Menu
00:00:00.000 : :Prologo
00:00:25.000 : :Opening
00:01:55.010 : :Parte A
00:13:28.030 : :Inserto
00:13:34.040 : :Parte B
00:22:25.030 : :Ending
00:23:54.990 : :Anteprima



General
Unique ID : 204446665316573779309193024705159828889 (0x99CEFED7896B5622B9BA6FA3D1811599)
Complete name : [TnS] Hoshizora e Kakaru Hashi - 05 [BD 1080p x264 Hi10p FLAC][23BC8EA8].mkv
File size : 1.14 GiB
Duration : 24mn 25s
Overall bit rate : 6 668 Kbps
Encoded date : UTC 2016-12-12 23:17:55
Writing application : mkvmerge v9.6.0 ('Slave To Your Mind') 64bit
Attachments : cronos13b.ttf / edosz.ttf / ELEPHNT.TTF / SweetAsCandy.ttf / ARCENA.ttf / Arista2.0.ttf / CasualMarkerMF.ttf / Chinacat.ttf

Video
ID : 1
Duration : 24mn 25s
Bit rate : 5 078 Kbps
Frame rate : 23.976 (24000/1001) fps
Bits/(Pixel*Frame) : 0.102
Stream size : 887 MiB (76%)
Title : [TnS] Hoshizora e Kakaru Hashi - 05 [BD 1080p x264 Hi10p]
Language : Japanese
Default : Yes
Forced : No

Audio
ID : 2
Duration : 24mn 25s
Bit rate : 1 572 Kbps
Frame rate : 11.719 fps (4096 spf)
Stream size : 275 MiB (24%)
Title : FLAC

Text
ID : 3
Format : ASS
Codec ID : S_TEXT/ASS
Codec ID/Info : Advanced Sub Station Alpha
Duration : 24mn 22s
Bit rate : 9 625 bps
Count of elements : 8900
Compression mode : Lossless
Stream size : 1.68 MiB (0%)
Title : TnS
Language : Italian
Default : Yes
Forced : Yes

Menu
00:00:00.000 : :Prologo
00:01:00.950 : :Opening
00:02:31.000 : :Parte A
00:11:22.990 : :Inserto
00:11:29.000 : :Parte B
00:22:24.990 : :Ending
00:23:54.950 : :Anteprima



General
Unique ID : 198101852785660516641946007016605821952 (0x9509076EA19C60C584BBEF5EEBB52C00)
Complete name : [TnS] Hoshizora e Kakaru Hashi - 06 [BD 1080p x264 Hi10p FLAC][82BC0687].mkv
File size : 956 MiB
Duration : 24mn 25s
Overall bit rate : 5 471 Kbps
Encoded date : UTC 2016-12-12 23:21:22
Writing application : mkvmerge v9.6.0 ('Slave To Your Mind') 64bit
Attachments : Chinacat.ttf / cronos13b.ttf / Dadhand.ttf / SweetAsCandy.ttf / ARCENA.ttf / Arista2.0.ttf / CasualMarkerMF.ttf

Video
ID : 1
Duration : 24mn 25s
Bit rate : 3 991 Kbps
Frame rate : 23.976 (24000/1001) fps
Bits/(Pixel*Frame) : 0.080
Stream size : 697 MiB (73%)
Title : [TnS] Hoshizora e Kakaru Hashi - 06 [BD 1080p x264 Hi10p]
Language : Japanese
Default : Yes
Forced : No

Audio
ID : 2
Duration : 24mn 25s
Bit rate : 1 462 Kbps
Frame rate : 11.719 fps (4096 spf)
Stream size : 255 MiB (27%)
Title : FLAC

Text
ID : 3
Format : ASS
Codec ID : S_TEXT/ASS
Codec ID/Info : Advanced Sub Station Alpha
Duration : 24mn 3s
Bit rate : 9 671 bps
Count of elements : 8857
Compression mode : Lossless
Stream size : 1.66 MiB (0%)
Title : TnS
Language : Italian
Default : Yes
Forced : Yes

Menu
00:00:00.000 : :Prologo
00:00:31.010 : :Opening
00:02:00.970 : :Parte A
00:09:57.990 : :Inserto
00:10:03.990 : :Parte B
00:22:25.030 : :Ending
00:23:54.990 : :Anteprima



General
Unique ID : 238983419085658082350120022764223554846 (0xB3CA884500EB93DBAF6704BF3679651E)
Complete name : [TnS] Hoshizora e Kakaru Hashi - 07 [BD 1080p x264 Hi10p FLAC][3747FE6A].mkv
File size : 1.06 GiB
Duration : 24mn 25s
Overall bit rate : 6 185 Kbps
Encoded date : UTC 2016-12-13 11:49:24
Writing application : mkvmerge v9.6.0 ('Slave To Your Mind') 64bit
Attachments : cronos13b.ttf / keage no moon.ttf / SweetAsCandy.ttf / ARCENA.ttf / Arista2.0.ttf / ARTIS.TTF / AVGARDNEclipse.ttf / belligerent.ttf / CasualMarkerMF.ttf / Chinacat.ttf

Video
ID : 1
Duration : 24mn 25s
Bit rate : 4 692 Kbps
Frame rate : 23.976 (24000/1001) fps
Bits/(Pixel*Frame) : 0.094
Stream size : 820 MiB (76%)
Title : [TnS] Hoshizora e Kakaru Hashi - 07 [BD 1080p x264 Hi10p]
Language : Japanese
Default : Yes
Forced : No

Audio
ID : 2
Duration : 24mn 25s
Bit rate : 1 474 Kbps
Frame rate : 11.719 fps (4096 spf)
Stream size : 257 MiB (24%)
Title : FLAC

Text
ID : 3
Format : ASS
Codec ID : S_TEXT/ASS
Codec ID/Info : Advanced Sub Station Alpha
Duration : 24mn 15s
Bit rate : 10.3 Kbps
Count of elements : 9243
Compression mode : Lossless
Stream size : 1.79 MiB (0%)
Title : TnS
Language : Italian
Default : Yes
Forced : Yes

Menu
00:00:00.000 : :Prologo
00:00:30.000 : :Opening
00:02:00.010 : :Parte A
00:13:05.010 : :Inserto
00:13:11.020 : :Parte B
00:22:25.030 : :Ending
00:23:54.990 : :Anteprima



General
Unique ID : 246355270340600224883106900121780038831 (0xB9564C9911D46CC0ABC3A7084B112CAF)
Complete name : [TnS] Hoshizora e Kakaru Hashi - 08 [BD 1080p x264 Hi10p FLAC][5C8C5B67].mkv
File size : 883 MiB
Duration : 24mn 24s
Overall bit rate : 5 056 Kbps
Encoded date : UTC 2016-12-13 11:51:25
Writing application : mkvmerge v9.6.0 ('Slave To Your Mind') 64bit
Attachments : Chinacat.ttf / cronos13b.ttf / SweetAsCandy.ttf / ARCENA.ttf / Arista2.0.ttf / AVGARDNEclipse.ttf / CasualMarkerMF.ttf

Video
ID : 1
Duration : 20mn 20s
Bit rate : 4 581 Kbps
Frame rate : 23.976 (23976/1000) fps
Original frame rate : 23.976 (24000/1001) fps
Bits/(Pixel*Frame) : 0.092
Stream size : 667 MiB (75%)
Title : [TnS] Hoshizora e Kakaru Hashi - 08 [BD 1080p x264 Hi10p]
Language : hai
Default : Yes
Forced : No

Audio
ID : 2
Duration : 20mn 21s
Bit rate : 1 465 Kbps
Frame rate : 11.719 fps (4096 spf)
Stream size : 213 MiB (24%)
Title : FLAC

Text
ID : 3
Format : ASS
Codec ID : S_TEXT/ASS
Codec ID/Info : Advanced Sub Station Alpha
Duration : 24mn 19s
Bit rate : 9 568 bps
Count of elements : 8864
Compression mode : Lossless
Stream size : 1.66 MiB (0%)
Title : TnS
Language : Italian
Default : Yes
Forced : Yes

Menu
00:00:00.000 : :Prologo
00:00:58.030 : :Opening
00:02:28.000 : :Parte A
00:11:16.980 : :Inserto
00:11:22.990 : :Parte B
00:22:24.990 : :Ending
00:23:54.950 : :Anteprima



General
Unique ID : 182604501954501523744765105118657110446 (0x8960590B59211C1580379CD56DE3E1AE)
Complete name : [TnS] Hoshizora e Kakaru Hashi - 09 [BD 1080p x264 Hi10p FLAC][70074698].mkv
File size : 992 MiB
Duration : 24mn 25s
Overall bit rate : 5 677 Kbps
Encoded date : UTC 2016-12-13 11:53:39
Writing application : mkvmerge v9.6.0 ('Slave To Your Mind') 64bit
Attachments : Chanor_Sans_Book_Bold_by_xlphs.otf / Chinacat.ttf / cronos13b.ttf / SubwayNovellaDEMO.ttf / SweetAsCandy.ttf / Animated.ttf / ARCENA.ttf / Arista2.0.ttf / CasualMarkerMF.ttf

Video
ID : 1
Duration : 24mn 25s
Bit rate : 4 199 Kbps
Frame rate : 23.976 (24000/1001) fps
Bits/(Pixel*Frame) : 0.084
Stream size : 734 MiB (74%)
Title : [TnS] Hoshizora e Kakaru Hashi - 09 [BD 1080p x264 Hi10p]
Language : Japanese
Default : Yes
Forced : No

Audio
ID : 2
Duration : 24mn 25s
Bit rate : 1 457 Kbps
Frame rate : 11.719 fps (4096 spf)
Stream size : 255 MiB (26%)
Title : FLAC

Text
ID : 3
Format : ASS
Codec ID : S_TEXT/ASS
Codec ID/Info : Advanced Sub Station Alpha
Duration : 24mn 12s
Bit rate : 9 629 bps
Count of elements : 8860
Compression mode : Lossless
Stream size : 1.67 MiB (0%)
Title : TnS
Language : Italian
Default : Yes
Forced : Yes

Menu
00:00:00.000 : :Prologo
00:00:45.020 : :Opening
00:02:14.980 : :Parte A
00:12:27.010 : :Inserto
00:12:33.020 : :Parte B
00:22:25.030 : :Ending
00:23:54.990 : :Anteprima



General
Unique ID : 204864221471658510734737890997719019743 (0x9A1F69F329159C93BE3F9BCF4F7830DF)
Complete name : [TnS] Hoshizora e Kakaru Hashi - 10 [BD 1080p x264 Hi10p FLAC][42033BDE].mkv
File size : 1.03 GiB
Duration : 24mn 25s
Overall bit rate : 6 025 Kbps
Encoded date : UTC 2016-12-13 11:55:43
Writing application : mkvmerge v9.6.0 ('Slave To Your Mind') 64bit
Attachments : Chinacat.ttf / cronos13b.ttf / DIST Inking Fxd Bold.otf / International.ttf / NIKUKYU.ttf / SweetAsCandy.ttf / ARCENA.ttf / Arista2.0.ttf / AVGARDNEclipse.ttf / bandmess.ttf / BlockParty.ttf / CasualMarkerMF.ttf

Video
ID : 1
Duration : 24mn 25s
Bit rate : 4 573 Kbps
Frame rate : 23.976 (24000/1001) fps
Bits/(Pixel*Frame) : 0.092
Stream size : 799 MiB (76%)
Title : [TnS] Hoshizora e Kakaru Hashi - 10 [BD 1080p x264 Hi10p]
Language : Japanese
Default : Yes
Forced : No

Audio
ID : 2
Duration : 24mn 25s
Bit rate : 1 440 Kbps
Frame rate : 11.719 fps (4096 spf)
Stream size : 252 MiB (24%)
Title : FLAC

Text
ID : 3
Format : ASS
Codec ID : S_TEXT/ASS
Codec ID/Info : Advanced Sub Station Alpha
Duration : 24mn 11s
Bit rate : 668 bps
Count of elements : 945
Compression mode : Lossless
Stream size : 118 KiB (0%)
Title : TnS
Language : Italian
Default : Yes
Forced : Yes

Menu
00:00:00.000 : :Prologo
00:01:47.000 : :Opening
00:03:16.960 : :Parte A
00:10:25.980 : :Inserto
00:10:31.980 : :Parte B
00:22:11.970 : :Ending
00:23:41.980 : :Finale
00:24:09.970 : :Anteprima



General
Unique ID : 245184162384432862900340000635490819679 (0xB874C0848D102E9A89E2C0BB18265E5F)
Complete name : [TnS] Hoshizora e Kakaru Hashi - 11 [BD 1080p x264 Hi10p FLAC][28B3AC6A].mkv
File size : 1.09 GiB
Duration : 24mn 25s
Overall bit rate : 6 405 Kbps
Encoded date : UTC 2016-12-13 11:58:06
Writing application : mkvmerge v9.6.0 ('Slave To Your Mind') 64bit
Attachments : CasualMarkerMF.ttf / Chinacat.ttf / cronos13b.ttf / SweetAsCandy.ttf / Alex.ttf / ARCENA.ttf / Arista2.0.ttf / AVGARDNEclipse.ttf

Video
ID : 1
Duration : 24mn 25s
Bit rate : 4 935 Kbps
Frame rate : 23.976 (24000/1001) fps
Bits/(Pixel*Frame) : 0.099
Stream size : 862 MiB (77%)
Title : [TnS] Hoshizora e Kakaru Hashi - 11 [BD 1080p x264 Hi10p]
Language : Japanese
Default : Yes
Forced : No

Audio
ID : 2
Duration : 24mn 25s
Bit rate : 1 414 Kbps
Frame rate : 11.719 fps (4096 spf)
Stream size : 247 MiB (22%)
Title : FLAC

Text
ID : 3
Format : ASS
Codec ID : S_TEXT/ASS
Codec ID/Info : Advanced Sub Station Alpha
Duration : 24mn 22s
Bit rate : 43.4 Kbps
Count of elements : 24517
Compression mode : Lossless
Stream size : 7.57 MiB (1%)
Title : TnS
Language : Italian
Default : Yes
Forced : Yes

Menu
00:00:00.000 : :Prologo
00:00:35.010 : :Opening
00:02:05.020 : :Parte A
00:13:29.030 : :Inserto
00:13:35.040 : :Parte B
00:22:25.030 : :Ending
00:23:54.990 : :Anteprima



General
Unique ID : 217064273068174743069264595330200649610 (0xA34D0EEF196673B185A84751982A3F8A)
Complete name : [TnS] Hoshizora e Kakaru Hashi - 12 [BD 1080p x264 Hi10p FLAC][96F796EC].mkv
File size : 1 002 MiB
Duration : 24mn 24s
Overall bit rate : 5 739 Kbps
Encoded date : UTC 2016-12-14 21:30:56
Writing application : mkvmerge v9.6.0 ('Slave To Your Mind') 64bit
Attachments : HANDWRITTEN_CRYSTAL_V2.TTF / HiraginoGyoDS-W4.ttf / SweetAsCandy.ttf / ARCENA.ttf / Arista2.0.ttf / CasualMarkerMF.ttf / Chinacat.ttf / cronos13b.ttf

Video
ID : 1
Duration : 24mn 24s
Bit rate : 4 251 Kbps
Frame rate : 23.976 (24000/1001) fps
Bits/(Pixel*Frame) : 0.086
Stream size : 742 MiB (74%)
Title : [TnS] Hoshizora e Kakaru Hashi - 12 [BD 1080p x264 Hi10p]
Language : Japanese
Default : Yes
Forced : No

Audio
ID : 2
Duration : 24mn 24s
Bit rate : 1 435 Kbps
Frame rate : 11.719 fps (4096 spf)
Stream size : 251 MiB (25%)
Title : FLAC

Text
ID : 3
Format : ASS
Codec ID : S_TEXT/ASS
Codec ID/Info : Advanced Sub Station Alpha
Duration : 23mn 50s
Bit rate : 43.2 Kbps
Count of elements : 14310
Compression mode : Lossless
Stream size : 7.37 MiB (1%)
Title : TnS
Language : Italian
Default : Yes
Forced : Yes

Menu
00:00:00.000 : :Prologo
00:03:28.980 : :Parte A
00:13:47.930 : :Inserto
00:13:53.930 : :Parte B
00:20:30.750 : :Ending
00:23:04.610 : :Epilogo



General
Unique ID : 173390293638634844254463567325823649399 (0x8271C17FF0E34EE98C93B3130FEA4677)
Complete name : [TnS] Hoshizora e Kakaru Hashi - 13 OVA [BD 1080p x264 Hi10p FLAC][90D125FE].mkv
File size : 1.19 GiB
Duration : 26mn 28s
Overall bit rate : 6 445 Kbps
Encoded date : UTC 2016-12-20 20:38:18
Writing application : mkvmerge v9.6.0 ('Slave To Your Mind') 64bit
Attachments : cronos13b.ttf / edosz.ttf / georgiab.ttf / Hannah's Messy handwriting.TTF / HiraginoGyoDS-W4.ttf / KOMTXTB.ttf / KozMinPro-Medium.otf / MAIAN.TTF / SpicyRice-Regular.otf / Starz 2.ttf / SweetAsCandy.ttf / times.ttf / VAGRounded Lt-Normal_0.ttf / [CMS] Nisemonogatari 06 [720p][6EFBDBA7]_attachment_Andyb.TTF / ARCENA.ttf / Arista2.0.ttf / BRADHITC.TTF / CasualMarkerMF.ttf / Chinacat.ttf

Video
ID : 1
Duration : 26mn 28s
Bit rate : 4 895 Kbps
Frame rate : 23.976 (24000/1001) fps
Bits/(Pixel*Frame) : 0.098
Stream size : 927 MiB (76%)
Title : [TnS] Hoshizora e Kakaru Hashi - OVA [BD 1080p x264 Hi10p]
Language : Japanese
Default : Yes
Forced : No

Audio
ID : 2
Duration : 26mn 28s
Bit rate : 1 500 Kbps
Frame rate : 11.719 fps (4096 spf)
Stream size : 284 MiB (23%)
Title : FLAC

Text
ID : 3
Format : ASS
Codec ID : S_TEXT/ASS
Codec ID/Info : Advanced Sub Station Alpha
Duration : 26mn 9s
Bit rate : 10.9 Kbps
Count of elements : 10405
Compression mode : Lossless
Stream size : 2.04 MiB (0%)
Title : TnS
Language : Italian
Default : Yes
Forced : Yes

Menu
00:00:00.000 : :Prologo
00:01:17.890 : :Opening
00:02:47.890 : :Daigo scopre il suo amore per l'arte, tenta di fare foto di nudo artistico a...
00:06:19.150 : :...Tsumugi
00:09:24.200 : :...Madoka
00:14:20.790 : :...Sakai
00:16:04.020 : :...Ibuki
00:17:59.850 : :...Ayumu
00:20:09.350 : :...e finalmente incontra Yuuka
00:24:57.010 : :Ending

Files in torrent:

[Show files]

User comments:

[Subscribe]

No user comments have been posted.

Post a comment:

You need to be logged in to post a comment.