Anime >> Non-English-translatedFlag torrent
    
Name:[TnS] Darker than BLACK - Kuro no Keiyakusha - 05v2 SUB ITA [BD 1080p x264 FLAC][F409ED8A].mkvDate:2016-12-27, 14:43 UTC
Submitter:TanoshimiNoSekaiFansub [Subscribe]Seeders:5
Tracker:http://open.nyaatorrents.info:6544/announceLeechers:0
Information:http://tnsfansub.altervista.org/Downloads:612
Stardom:0 fans.File size:814.9 MiB
Download .txt
Download
Vuze with the Mainline DHT plugin is the recommended client.
Playback help is right here. :3

Torrent description:

Image
Darker than BLACK - Kuro no Keiyakusha - 05v2 BD by
Tanoshimi no Sekai Fansub

Image



Generale
Unique ID : 186601253536165788411721155824684789239 (0x8C62181C7A8870388FD8482F9D166DF7)
Complete name : [TnS] Darker than BLACK - Kuro no Keiyakusha - 05v2 [BD 1080p x264 FLAC][F409ED8A].mkv
Format : Matroska
Format version : Version 4 / Version 2
File size : 815MiB
Duration : 24 min 9s
Overall bit rate mode : Variabile
Overall bit rate : 4.716 kb/s
Encoded date : UTC 2016-12-27 10:27:48
Writing application : mkvmerge v9.5.0 ('Quiet Fire') 64bit
Writing library : libebml v1.3.4 + libmatroska v1.4.5
Attachments : Dynk.ttf / LEHN095.TTF / LinBiolinum_RB_G.ttf / Montara-Gothic.otf / ufonts.com_copperplate-bold.ttf / arial.ttf / BRUSHSTP.ttf / Delius-Regular.ttf / DFLIS6_4.TTC / DFLIS6_5.TTC

Video
ID : 1
Format : AVC
Format/Info : Advanced Video Codec
Format profile : High@L5
Format settings, CABAC : Si
Format settings, ReFrames : 5 frame
Codec ID : V_MPEG4/ISO/AVC
Duration : 24 min 9s
Bit rate : 3.242 kb/s
Width : 1.920 pixel
Height : 1.080 pixel
Display aspect ratio : 16:9
Frame rate mode : Costante
Frame rate : 23,976 (24000/1001) FPS
Color space : YUV
Chroma subsampling : 4:2:0
Bit depth : 8 bit
Scan type : Progressivo
Bits/(Pixel*Frame) : 0.065
Stream size : 560MiB (69%)
Title : [TnS] Darker than BLACK - Kuro no Keiyakusha - 05 [BD 1080p x264]
Writing library : x264 core 148 r2638 7599210
Encoding settings : cabac=1 / ref=5 / deblock=1:1:1 / analyse=0x3:0x113 / me=umh / subme=9 / psy=1 / psy_rd=0.70:0.00 / mixed_ref=1 / me_range=32 / chroma_me=1 / trellis=0 / 8x8dct=1 / cqm=0 / deadzone=21,11 / fast_pskip=0 / chroma_qp_offset=-2 / threads=12 / lookahead_threads=1 / sliced_threads=0 / nr=0 / decimate=1 / interlaced=0 / bluray_compat=0 / constrained_intra=0 / bframes=3 / b_pyramid=2 / b_adapt=2 / b_bias=0 / direct=1 / weightb=1 / open_gop=0 / weightp=2 / keyint=240 / keyint_min=23 / scenecut=40 / intra_refresh=0 / rc_lookahead=40 / rc=crf / mbtree=1 / crf=17.0 / qcomp=0.60 / qpmin=0 / qpmax=69 / qpstep=4 / ip_ratio=1.40 / aq=1:1.00
Language : Giapponese
Default : Si
Forced : No

Audio
ID : 2
Format : FLAC
Format/Info : Free Lossless Audio Codec
Codec ID : A_FLAC
Duration : 24 min 9s
Bit rate mode : Variabile
Bit rate : 1.399 kb/s
Channel(s) : 6 canali
Channel positions : Front: L C R, Side: L R, LFE
Sampling rate : 48,0 kHz
Frame rate : 41,667 FPS (1152 spf)
Bit depth : 16 bit
Stream size : 242MiB (30%)
Title : FLAC
Writing library : libFLAC 1.3.1 (UTC 2014-11-25)
Language : Giapponese
Default : Si
Forced : No

Testo
ID : 3
Format : ASS
Codec ID : S_TEXT/ASS
Codec ID/Info : Advanced Sub Station Alpha
Duration : 24 min 1s
Bit rate : 1.487 b/s
Count of elements : 1817
Compression mode : Senza perdita
Stream size : 262 KiB (0%)
Title : TnS
Language : Italiano
Default : Si
Forced : Si

Menu
00:00:00.000 : it:
00:06:55.000 : it:
00:08:24.522 : it:
00:11:18.099 : it:
00:22:08.750 : it:
00:23:39.500 : it:

Files in torrent:

[Show files]

User comments:

[Subscribe]

No user comments have been posted.

Post a comment:

You need to be logged in to post a comment.