Anime >> RawFlag torrent
    
Name:[Anime Land] Pokémon Movie 19 - Volcanion and the Mechanical Marvel (BDRip 720p Hi10P AC3) RAW [65C03ECB].mkvDate:2017-01-08, 13:43 UTC
Submitter:An-land [Subscribe]Seeders:22
Tracker:http://open.nyaatorrents.info:6544/announceLeechers:5
Information:http://an-land.net/vbDownloads:1645
Stardom:11 fans.File size:3.13 GiB
Download .txt
Download
Vuze with the Mainline DHT plugin is the recommended client.
Playback help is right here. :3

Torrent description:

Image

Info: MAL - IMDB

General
Unique ID : 210271800067515684939374603034918163160 (0x9E30E028B30B63E8BE0475D9266092D8)
Complete name : D:\BD\POKEMON_MOVIE_19_J-BD\Encode\[Anime Land] Pokémon Movie 19 - Volcanion and the Mechanical Marvel (BDRip 720p Hi10P AC3) RAW [65C03ECB].mkv
Format : Matroska
Format version : Version 4 / Version 2
File size : 3.13 GiB
Duration : 1h 34mn
Overall bit rate : 4 739 Kbps
Encoded date : UTC 2017-01-08 13:27:15
Writing application : mkvmerge v8.2.0 ('World of Adventure') 32bit
Writing library : libebml v1.3.1 + libmatroska v1.4.2

Video
ID : 1
Format : AVC
Format/Info : Advanced Video Codec
Format profile : High 10@L5
Format settings, CABAC : Yes
Format settings, ReFrames : 16 frames
Codec ID : V_MPEG4/ISO/AVC
Duration : 1h 34mn
Bit rate : 4 004 Kbps
Width : 1 280 pixels
Height : 720 pixels
Display aspect ratio : 16:9
Frame rate mode : Constant
Frame rate : 23.976 (24000/1001) fps
Color space : YUV
Chroma subsampling : 4:2:0
Bit depth : 10 bits
Scan type : Progressive
Bits/(Pixel*Frame) : 0.181
Stream size : 2.65 GiB (85%)
Title : H264 Hi10P 720p By Omar
Writing library : x264 core 148 r2721kMod 72d53ab
Encoding settings : cabac=1 / ref=16 / deblock=1:-1:-1 / analyse=0x3:0x133 / me=umh / subme=10 / psy=1 / fade_compensate=0.00 / psy_rd=1.00:0.15 / mixed_ref=1 / me_range=24 / chroma_me=1 / trellis=2 / 8x8dct=1 / cqm=0 / deadzone=21,11 / fast_pskip=0 / chroma_qp_offset=-3 / threads=18 / lookahead_threads=4 / sliced_threads=0 / nr=0 / decimate=1 / interlaced=0 / bluray_compat=0 / constrained_intra=0 / fgo=0 / bframes=16 / b_pyramid=2 / b_adapt=2 / b_bias=0 / direct=3 / weightb=1 / open_gop=0 / weightp=2 / keyint=250 / keyint_min=23 / scenecut=40 / intra_refresh=0 / rc_lookahead=60 / rc=crf / mbtree=1 / crf=17.0000 / qcomp=0.80 / qpmin=0 / qpmax=81 / qpstep=4 / ip_ratio=1.40 / aq=2:1.00
Language : Japanese
Default : Yes
Forced : No

Audio
ID : 2
Format : AC-3
Format/Info : Audio Coding 3
Mode extension : CM (complete main)
Format settings, Endianness : Big
Codec ID : A_AC3
Duration : 1h 34mn
Bit rate mode : Constant
Bit rate : 640 Kbps
Channel(s) : 6 channels
Channel positions : Front: L C R, Side: L R, LFE
Sampling rate : 48.0 KHz
Frame rate : 31.250 fps (1536 spf)
Compression mode : Lossy
Stream size : 433 MiB (14%)
Title : AC3 640 Kbps 5.1 (Untouched)
Language : Japanese
Default : Yes
Forced : No

Text
ID : 3
Format : PGS
Muxing mode : zlib
Codec ID : S_HDMV/PGS
Codec ID/Info : Picture based subtitle format used on BDs/HD-DVDs
Title : PGS Official JPN Sub (Untouched)
Language : Japanese
Default : Yes
Forced : No

Menu
00:00:00.000 : :1
00:01:07.734 : :2
00:05:11.353 : :3
00:08:00.689 : :4
00:11:43.202 : :5
00:25:17.474 : :6
00:34:44.958 : :7
00:45:22.053 : :8
00:58:09.361 : :9
01:09:32.919 : :10
01:17:10.042 : :11
01:29:23.358 : :12

Files in torrent:

[Show files]

User comments:

[Subscribe]

No user comments have been posted.

Post a comment:

You need to be logged in to post a comment.