Anime >> English-translatedFlag torrent
    
Name:[Chotab] Dragon Ball Super - 037-048 (BD, 720p 8-bit)Date:2017-01-12, 03:38 UTC
Submitter:Chouonsoku [Subscribe]Seeders:2
Tracker:http://open.nyaatorrents.info:6544/announceLeechers:0
Information:Downloads:3102
Stardom:Only 3 fans.File size:4.48 GiB
Download .txt
Download
Vuze with the Mainline DHT plugin is the recommended client.
Playback help is right here. :3

Torrent description:

Source: R2 Blu-ray

Credits:

Subs: DragonTeam, with adjustments
Timing: sangofe
QC: Chotab
Encoding: Chotab

Box 2: 8-bit and 10-bit
Box 3: 8-bit and 10-bit
Box 4: 8-bit and 10-bit

Quote:
General
Unique ID : 236420317040917390158081730486000483915 (0xB1DCE595043F0DD6BD248EB355D8FE4B)
Complete name : Dragon Ball Super - 037 (BD) - Don't Forget Your Saiyan Pride! Vegeta VS the Saiyan from Universe 6 [947C880F].mkv
Format : Matroska
Format version : Version 4 / Version 2
File size : 363 MiB
Duration : 23 min 6 s
Overall bit rate : 2 198 kb/s
Movie name : Dragon Ball Super: 37 - Don't Forget Your Saiyan Pride! Vegeta VS the Saiyan from Universe 6
Encoded date : UTC 2017-01-06 23:02:18
Writing application : mkvmerge v9.6.0 ('Slave To Your Mind') 64bit
Writing library : libebml v1.3.4 + libmatroska v1.4.5
Attachments : CoconBoldM.otf / FOT-RodinPro-B_0.otf / FOT-RodinProN-EB.otf / KingthingsClarityPTFix2.ttf / LICA.ttf

Video
ID : 1
Format : AVC
Format/Info : Advanced Video Codec
Format profile : High@L4.1
Format settings, CABAC : Yes
Format settings, ReFrames : 9 frames
Codec ID : V_MPEG4/ISO/AVC
Duration : 23 min 6 s
Bit rate : 1 889 kb/s
Width : 1 280 pixels
Height : 720 pixels
Display aspect ratio : 16:9
Frame rate mode : Constant
Frame rate : 23.976 (24000/1001) FPS
Color space : YUV
Chroma subsampling : 4:2:0
Bit depth : 8 bits
Scan type : Progressive
Bits/(Pixel*Frame) : 0.086
Stream size : 312 MiB (86%)
Writing library : x264 core 148 r2744 b97ae06
Encoding settings : cabac=1 / ref=9 / deblock=1:0:0 / analyse=0x3:0x133 / me=umh / subme=10 / psy=1 / psy_rd=1.00:0.00 / mixed_ref=1 / me_range=64 / chroma_me=1 / trellis=2 / 8x8dct=1 / cqm=0 / deadzone=21,11 / fast_pskip=0 / chroma_qp_offset=-2 / threads=18 / lookahead_threads=4 / sliced_threads=0 / nr=0 / decimate=0 / interlaced=0 / bluray_compat=0 / constrained_intra=0 / bframes=16 / b_pyramid=2 / b_adapt=2 / b_bias=0 / direct=3 / weightb=1 / open_gop=0 / weightp=2 / keyint=240 / keyint_min=23 / scenecut=40 / intra_refresh=0 / rc_lookahead=60 / rc=crf / mbtree=1 / crf=17.0 / qcomp=0.60 / qpmin=0 / qpmax=69 / qpstep=4 / vbv_maxrate=62500 / vbv_bufsize=78125 / crf_max=0.0 / nal_hrd=none / filler=0 / ip_ratio=1.20 / aq=3:1.00 / zones=12365,12454,crf=20,psy-rd=0.8:0.0,ipratio=1.4,aq-strength=0.6/13449,13514,crf=20,psy-rd=0.8:0.0,ipratio=1.4,aq-strength=0.6
Language : Japanese
Default : Yes
Forced : No

Audio
ID : 2
Format : AAC
Format/Info : Advanced Audio Codec
Format profile : LC
Codec ID : A_AAC
Duration : 23 min 6 s
Bit rate : 265 kb/s
Channel(s) : 2 channels
Channel positions : Front: L R
Sampling rate : 48.0 kHz
Frame rate : 46.875 FPS (1024 spf)
Compression mode : Lossy
Delay relative to video : 20 ms
Stream size : 43.1 MiB (12%)
Language : Japanese
Default : Yes
Forced : No

Text
ID : 3
Format : ASS
Codec ID : S_TEXT/ASS
Codec ID/Info : Advanced Sub Station Alpha
Duration : 22 min 53 s
Bit rate : 104 b/s
Count of elements : 286
Compression mode : Lossless
Stream size : 17.5 KiB (0%)
Language : English
Default : Yes
Forced : Yes

Menu
00:00:00.000 : en:Opening Theme
00:01:25.085 : en:Recap
00:02:33.070 : en:Part A
00:12:51.104 : en:Part B
00:21:35.085 : en:Ending Theme
00:22:35.145 : en:Next Episode Preview

Files in torrent:

[Show files]

User comments:

[Subscribe]

No user comments have been posted.

Post a comment:

You need to be logged in to post a comment.