Anime >> RawFlag torrent
    
Name:[Anime Land] Koutetsujou no Kabaneri (BDRip 720p Hi10P QAAC) RAWDate:2017-01-29, 11:30 UTC
Submitter:An-land [Subscribe]Seeders:1
Tracker:http://open.nyaatorrents.info:6544/announceLeechers:1
Information:http://an-land.net/vbDownloads:887
Stardom:12 fans.File size:10.19 GiB
Download .txt
Download
Vuze with the Mainline DHT plugin is the recommended client.
Playback help is right here. :3

Torrent description:

Image

Episodes: 12
Creditless Songs: 4

please tell me if there is any error, thank you!

~.~.~.~.~.~.~.~.~.~.~.~.~.~.~.~.~.~.~.~

Source: 3xBD50
BDMV Provider: U2
Video: H264 Hi10P 720p
Audio: QAAC CBR 320 Kbps Stereo
Encoder: Omar
Server: MegaMan
Info : MAL

~.~.~.~.~.~.~.~.~.~.~.~.~.~.~.~.~.~.~.~

Image
Image
Image
Image
Image
Image
Image
Image

~.~.~.~.~.~.~.~.~.~.~.~.~.~.~.~.~.~.~.~

General
Complete name : [Anime Land] Koutetsujou no Kabaneri 10 (BDRip 720p Hi10P QAAC) RAW [5E200593].mp4
Format : MPEG-4
Format profile : Base Media / Version 2
Codec ID : mp42 (mp42/mp41/isom)
File size : 838 MiB
Duration : 22mn 50s
Overall bit rate mode : Variable
Overall bit rate : 5 125 Kbps
Encoded date : UTC 2017-01-29 07:57:57
Tagged date : UTC 2017-01-29 07:57:57

Video
ID : 1
Format : AVC
Format/Info : Advanced Video Codec
Format profile : High 10@L5
Format settings, CABAC : Yes
Format settings, ReFrames : 16 frames
Codec ID : avc1
Codec ID/Info : Advanced Video Coding
Duration : 22mn 50s
Bit rate : 4 802 Kbps
Maximum bit rate : 26.4 Mbps
Width : 1 280 pixels
Height : 720 pixels
Display aspect ratio : 16:9
Frame rate mode : Constant
Frame rate : 23.976 (24000/1001) fps
Color space : YUV
Chroma subsampling : 4:2:0
Bit depth : 10 bits
Scan type : Progressive
Bits/(Pixel*Frame) : 0.217
Stream size : 785 MiB (94%)
Writing library : x264 core 148 r2721kMod 72d53ab
Encoding settings : cabac=1 / ref=16 / deblock=1:-1:-1 / analyse=0x3:0x133 / me=umh / subme=10 / psy=1 / fade_compensate=0.00 / psy_rd=1.00:0.15 / mixed_ref=1 / me_range=24 / chroma_me=1 / trellis=2 / 8x8dct=1 / cqm=0 / deadzone=21,11 / fast_pskip=0 / chroma_qp_offset=-3 / threads=18 / lookahead_threads=4 / sliced_threads=0 / nr=0 / decimate=1 / interlaced=0 / bluray_compat=0 / constrained_intra=0 / fgo=0 / bframes=16 / b_pyramid=2 / b_adapt=2 / b_bias=0 / direct=3 / weightb=1 / open_gop=0 / weightp=2 / keyint=250 / keyint_min=23 / scenecut=40 / intra_refresh=0 / rc_lookahead=60 / rc=crf / mbtree=1 / crf=15.0000 / qcomp=0.80 / qpmin=0 / qpmax=81 / qpstep=4 / ip_ratio=1.40 / aq=2:1.00
Encoded date : UTC 2017-01-29 07:57:57
Tagged date : UTC 2017-01-29 08:04:43

Audio
ID : 2
Format : AAC
Format/Info : Advanced Audio Codec
Format profile : LC
Codec ID : 40
Duration : 22mn 50s
Bit rate mode : Variable
Bit rate : 320 Kbps
Maximum bit rate : 328 Kbps
Channel(s) : 2 channels
Channel positions : Front: L R
Sampling rate : 48.0 KHz
Frame rate : 46.875 fps (1024 spf)
Compression mode : Lossy
Stream size : 52.3 MiB (6%)
Encoded date : UTC 2017-01-29 06:21:25
Tagged date : UTC 2017-01-29 08:04:43

Files in torrent:

[Show files]

User comments:

[Subscribe]
Mugiwara No Lotffi
User
2017-01-31 at 14:31 UTC
متى يصدر الفلم الأول بلوراي؟

Post a comment:

You need to be logged in to post a comment.