Anime >> English-translatedFlag torrent
    
Name:[seiya] Pokemon Sun & Moon - 08 [CITV-WebDL 896x504 AAC DUB CC] [BFB77996].mp4Date:2017-04-21, 07:05 UTC
Submitter:seiya.moe [Subscribe]Seeders:0
Tracker:http://open.nyaatorrents.info:6544/announceLeechers:0
Information:https://twitter.com/seiya_lovelessDownloads:540
Stardom:Only 3 fans.File size:223.1 MiB
Download .txt
Download
Vuze with the Mainline DHT plugin is the recommended client.
Playback help is right here. :3

Torrent description:

Ripped from cITV site ;_;7
08. Lillie's Egg-xhilarating Challenge!
General
Complete name : [seiya] Pokemon Sun & Moon - 08 [CITV-WebDL 896x504 AAC DUB CC] [BFB77996].mp4
Format : MPEG-4
Format profile : Base Media
Codec ID : isom (isom/avc1)
File size : 229 MiB
Duration : 20 min 28 s
Overall bit rate mode : Variable
Overall bit rate : 1 564 kb/s
Encoded date : UTC 2017-04-19 06:59:58
Tagged date : UTC 2017-04-19 06:59:58

Video
ID : 1
Format : AVC
Format/Info : Advanced Video Codec
Format profile : High@L3.1
Format settings, CABAC : Yes
Format settings, ReFrames : 6 frames
Codec ID : avc1
Codec ID/Info : Advanced Video Coding
Duration : 20 min 28 s
Bit rate : 1 464 kb/s
Nominal bit rate : 1 704 kb/s
Maximum bit rate : 2 448 kb/s
Width : 896 pixels
Height : 504 pixels
Display aspect ratio : 16:9
Frame rate mode : Constant
Frame rate : 25.000 FPS
Color space : YUV
Chroma subsampling : 4:2:0
Bit depth : 8 bits
Scan type : Progressive
Bits/(Pixel*Frame) : 0.130
Stream size : 215 MiB (94%)
Title : [seiya]
Writing library : x264 core 138
Encoding settings : cabac=1 / ref=6 / deblock=1:-1:-1 / analyse=0x3:0x113 / me=umh / subme=8 / psy=1 / psy_rd=0.60:1.00 / mixed_ref=1
/ me_range=16 / chroma_me=1 / trellis=2 / 8x8dct=1 / cqm=0 / deadzone=21,11 / fast_pskip=1 / chroma_qp_offset=-4 / threads=8 / lookahead_threads=1
/ sliced_threads=0 / nr=0 / decimate=1 / interlaced=0 / bluray_compat=0 / constrained_intra=0 / bframes=3 / b_pyramid=0 / b_adapt=2 / b_bias=0 / direct=3
/ weightb=1 / open_gop=0 / weightp=2 / keyint=150 / keyint_min=15 / scenecut=0 / intra_refresh=0 / rc_lookahead=60 / rc=cbr / mbtree=1 / bitrate=1704
/ ratetol=1.0 / qcomp=0.60 / qpmin=0 / qpmax=69 / qpstep=4 / vbv_maxrate=1704 / vbv_bufsize=1278 / nal_hrd=none / filler=0 / ip_ratio=1.40 / aq=1:1.40
Encoded date : UTC 2017-04-19 06:59:58
Tagged date : UTC 2017-04-19 07:00:21

Audio
ID : 2
Format : AAC
Format/Info : Advanced Audio Codec
Format profile : LC
Codec ID : 40
Duration : 20 min 28 s
Bit rate mode : Variable
Bit rate : 96.0 kb/s
Maximum bit rate : 106 kb/s
Channel(s) : 2 channels
Channel positions : Front: L R
Sampling rate : 48.0 kHz
Frame rate : 46.875 FPS (1024 spf)
Compression mode : Lossy
Stream size : 14.1 MiB (6%)
Title : Dub
Language : English
Encoded date : UTC 2017-04-19 07:00:17
Tagged date : UTC 2017-04-19 07:00:21

Text
ID : 3
Format : Timed Text
Codec ID : tx3g
Duration : 20 min 0 s
Bit rate mode : Variable
Bit rate : 144 b/s
Stream size : 21.1 KiB (0%)
Title : Closed caption
Language : English
Forced : No
Encoded date : UTC 2017-04-19 07:00:21
Tagged date : UTC 2017-04-19 07:00:21

Files in torrent:

[Show files]

User comments:

[Subscribe]

No user comments have been posted.

Post a comment:

You need to be logged in to post a comment.